English

Verified torrent

R... Rajkumar Hindi Movie Mashup By Dj Angel - HD 1080p {DAKU RG} {GreatPalash}.mp4

Total size: 72.74 Mb Seeds 47 Leechs 0
							Without Any reason..Don't Dislike the torrent.....please check and give your feedback
Dance to the tunes of R...Rajkumar songs in a special mashup.
Eros International & Next Gen Films presents 'R...Rajkumar' a film directed by Prabhu Dheva featuring Shahid Kapoor & Sonakshi Sinha in the lead roles. The film is produced by Sunil Lulla & Viki Rajani.
R...Rajkumar releases in theatres on 6th December, 2013.
Screenshots:-
Media Info:-
General
Complete name : R... Rajkumar Hindi Movie Mashup By Dj Angel - HD 1080p {DAKU RG} {GreatPalash}.mp4
Format : MPEG-4
Format profile : Base Media
Codec ID : isom
File size : 72.7 MiB
Duration : 2mn 20s
Overall bit rate mode : Variable
Overall bit rate : 4 336 Kbps
Writing application : Lavf53.31.100
Video
ID : 1
Format : AVC
Format/Info : Advanced Video Codec
Format profile : High@L4.1
Format settings, CABAC : Yes
Format settings, ReFrames : 3 frames
Codec ID : avc1
Codec ID/Info : Advanced Video Coding
Duration : 2mn 20s
Bit rate mode : Variable
Bit rate : 4 076 Kbps
Maximum bit rate : 19.2 Mbps
Width : 1 920 pixels
Height : 1 080 pixels
Display aspect ratio : 16:9
Frame rate mode : Constant
Frame rate : 25.000 fps
Standard : PAL
Color space : YUV
Chroma subsampling : 4:2:0
Bit depth : 8 bits
Scan type : Progressive
Bits/(Pixel*Frame) : 0.079
Stream size : 68.4 MiB (94%)
Color primaries : BT.709
Transfer characteristics : BT.709
Matrix coefficients : BT.709
Audio
ID : 2
Format : AAC
Format/Info : Advanced Audio Codec
Format profile : LC
Codec ID : 40
Duration : 2mn 20s
Bit rate mode : Constant
Bit rate : 254 Kbps
Channel(s) : 2 channels
Channel positions : Front: L R
Sampling rate : 44.1 KHz
Compression mode : Lossy
Stream size : 4.25 MiB (6%)
						

R... Rajkumar Hindi Movie Mashup By Dj Angel - HD 1080p {DAKU RG} {GreatPalash}.mp4

R... Rajkumar Hindi Movie Mashup By Dj Angel - HD 1080p {DAKU RG} {GreatPalash}.mp4

R... Rajkumar Hindi Movie Mashup By Dj Angel - HD 1080p {DAKU RG} {GreatPalash}.mp4

FileSize
R... Rajkumar Hindi Movie Mashup By Dj Angel - HD 1080p {DAKU RG} {GreatPalash}.mp472.74 Mb
TrackerSeedsLeechsDownloaded
udp://tracker.publicbt.com:80/scrape7010
udp://tracker.openbittorrent.com:80/scrape4010
udp://tracker.istole.it:80/scrape8010
udp://open.demonii.com:1337/scrape902125
udp://9.rarbg.com:2710/scrape7042
udp://glotorrents.com:6969/scrape605
udp://tracker.glotorrents.com:6969/scrape605
http://exodus.desync.com/scrape000

Report this torrent

We will carefully monitor this report and react whenever possible.
Thanks for helping us in filtering out bad content and improving TorrentReactor for every other visitor!
Please login or register to be able to report torrents.

Your comment

Please Login or register to be able to add comments.

All comments

No one has added a comment yet. Be the first one.

Related torrents

R... Rajkumar Hindi Movie Mashup By Dj Angel - HD 1080p {DAKU RG} {GreatPalash}.mp4, related to R... Rajkumar Hindi Movie Mashup By Dj Angel - HD 1080p {DAKU RG} {GreatPalash}.mp4