Download Pelo malo (2013) 720p BRRip x264 HD torrent

Pelo malo (2013) 720p BRRip x264 HD torrent

Total size: 741.01 Mb Seeds 164 Leechs 28
Format                           : AVI
Format/Info                      : Audio Video Interleave
Format profile                   : OpenDML
Overall bit rate                 : 1 800 Kbps
Writing application              : VirtualDubMod 1.5.10.2 (build 2542/release)
Writing library                  : VirtualDubMod build 2542/release

Video

Format                           : MPEG-4 Visual
Format settings, BVOP            : Yes
Format settings, QPel            : No
Format settings, Matrix          : Default (MPEG)
Codec ID                         : x264
Codec ID/Hint                    : x264
Bit rate                         : 1 411 Kbps
Width                            : 1280 pixels
Height                           : 720 pixels
Display aspect ratio             : 16:9
Frame rate                       : 29.97 fps
Resolution                       : 24 bits
Colorimetry                      : 4:2:0
Scan type                        : Progressive
Bits/(Pixel*Frame)               : 0.338
Stream size                      : 1.03 GiB (78%)

Audio

Format                           : AC-3
Format/Info                      : Audio Coding 3
Codec ID                         : 2000
Bit rate mode                    : Constant
Bit rate                         : 384 Kbps
Channel(s)                       : 6 channels
Channel positions                : Front: L C R, Surround: L R, LFE
Sampling rate                    : 48.0 KHz
Stream size                      : 287 MiB (21%)
Alignment                        : Aligned on interleaves
Interleave, duration             : 64 ms (1.53 video frames)
Interleave, preload duration     : 192 ms
FileSize
Pelo malo (2013) 720p BRRip x264 HD/Pelo malo (2013) 720p BRRip x264 HD/Pelo malo (2013) 720p BRRip x264 HD.rar730.00 Mb
Pelo malo (2013) 720p BRRip x264 HD/Pelo malo (2013) 720p BRRip x264 HD.avi10.00 Mb
Pelo malo (2013) 720p BRRip x264 HD/Pelo malo (2013) 720p BRRip x264 HD.jpeg1.00 Mb
Pelo malo (2013) 720p BRRip x264 HD/Pelo malo (2013) 720p BRRip x264 HD.nfo1.78 Kb
Pelo malo (2013) 720p BRRip x264 HD/Torrent Downloaded From downloadhindimovies.in.txt1.78 Kb
Pelo malo (2013) 720p BRRip x264 HD/Torrent downloaded from h33t.com.txt1.78 Kb
Pelo malo (2013) 720p BRRip x264 HD/Dmt Nfo.txt1.78 Kb
TrackerSeedsLeechsDownloaded
udp://open.demonii.com:1337/scrape143213
udp://tracker.publicbt.com:80/scrape13110
udp://tracker.istole.it:80/scrape1436
udp://tracker.openbittorrent.com:80/scrape13310
udp://9.rarbg.me:2710/scrape153783
udp://ipv4.tracker.harry.lu:80/scrape13110
udp://coppersurfer.tk:6969/scrape143151
udp://12.rarbg.me:80/scrape1436
udp://tracker.openbittorrent.com/scrape13210
udp://9.rarbg.com:2710/scrape153783
udp://11.rarbg.com:80/scrape13210
udp://pow7.com:80/scrape13110
http://tracker.trackerfix.com/scrape000
http://flashtorrents.org/scrape.php000
http://divxhunt.me/scrape.php000
http://exodus.desync.com:6969/scrape000
http://coppersurfer.tk:6969/scrape000
http://bt.poletracker.org:2710/scrape000
http://cpleft.com:2710/scrape000
http://tracker.torrentbay.to:6969/scrape000
http://exodus.desync.com/scrape000
http://tracker.torrentfrancais.com/scrape000
Report this torrent
We will carefully monitor this report and react whenever possible.
Thanks for helping us in filtering out bad content and improving TorrentReactor for every other visitor!
Please login or register to be able to report torrents.

Your comment
Please Login or register to be able to add comments.
All comments

No one has added a comment yet. Be the first one.

Related torrents
Pelo malo (2013) 720p BRRip x264 HD, related to Pelo malo (2013) 720p BRRip x264 HD