Saving Santa

Saving Santa

Total size: 782.31 Mb Seeds 0 Leechs 0
  • Direct Link
  • File
  • Category
  • Added
    on 2013-11-28 16:29:06
  • Hash
    913e99ffdca7b51c81dd8f4f0488666a3c6ea549
  • Health
    0% Complete
  • Trackers
    5
  • Downloaded
    0 times
							**************************************************************
 Saving Santa
**************************************************************
Encoded By PcTechPaul
-------------------------------------------------------------------------------
 General Information
-------------------------------------------------------------------------------
Type.................: Movie
Platform.............: Video
More Info............: https://kickass.to/user/PcTechPaul/uploads/
Video Format.........: mp4
Video Bitrate........: 972
Resolution...........: 720p
Color................: 8 bit
FPS..................: 23.976
Source...............: Bluray
Original Format......: NTSC
Genre................: Animation | Adventure | Comedy
IMDb Rating..........: 5.1
Movie Information....: http://www.imdb.com/title/tt2204315/
-------------------------------------------------------------------------------
 Release Notes
-------------------------------------------------------------------------------
Complete name : M:Saving Santasavingsanta.mp4
Format : MPEG-4
Format profile : Base Media / Version 2
Codec ID : mp42
File size : 776 MiB
Duration : 1h 23mn
Overall bit rate mode : Variable
Overall bit rate : 1296 Kbps
Video
ID : 1
Format : AVC
Format/Info : Advanced Video Codec
Format profile : High@L4.0
Format settings, CABAC : Yes
Format settings, ReFrames : 8 frames
Codec ID : avc1
Codec ID/Info : Advanced Video Coding
Duration : 1h 23mn
Bit rate mode : Variable
Bit rate : 972 Kbps
Width : 1328 pixels
Height : 720 pixels
Display aspect ratio : 1.85:1
Frame rate mode : Variable
Frame rate : 23.976 fps
Minimum frame rate : 23.974 fps
Maximum frame rate : 23.981 fps
Color space : YUV
Chroma subsampling : 4:2:0
Bit depth : 8 bits
Scan type : Progressive
Bits/(Pixel*Frame) : 0.042
Stream size : 582 MiB (75%)
Writing library : x264 core 130 r2273 b3065e6
Encoding settings : cabac=1 / ref=8 / deblock=1:0:0 / analyse=0x3:0x113 / me=hex / subme=7 / psy=1 / psy_rd=1.20:0.15 / mixed_ref=1 / me_range=16 / chroma_me=1 / trellis=1 / 8x8dct=1 / cqm=0 / deadzone=21,11 / fast_pskip=1 / chroma_qp_offset=-3 / threads=12 / lookahead_threads=2 / sliced_threads=0 / nr=0 / decimate=1 / interlaced=0 / bluray_compat=0 / constrained_intra=0 / bframes=8 / b_pyramid=2 / b_adapt=1 / b_bias=0 / direct=1 / weightb=1 / open_gop=0 / weightp=2 / keyint=240 / keyint_min=24 / scenecut=40 / intra_refresh=0 / rc_lookahead=40 / rc=2pass / mbtree=1 / bitrate=972 / ratetol=1.0 / qcomp=0.60 / qpmin=0 / qpmax=69 / qpstep=4 / cplxblur=20.0 / qblur=0.5 / ip_ratio=1.40 / aq=1:1.00
Color primaries : BT.709
Transfer characteristics : BT.709
Matrix coefficients : BT.709
Audio
ID : 2
Format : AAC
Format/Info : Advanced Audio Codec
Format profile : LC
Codec ID : 40
Duration : 1h 23mn
Bit rate mode : Variable
Bit rate : 320 Kbps
Maximum bit rate : 525 Kbps
Channel(s) : 6 channels
Channel positions : Front: L C R, Side: L R, LFE
Sampling rate : 48.0 KHz
Compression mode : Lossy
Delay relative to video : 83ms
Stream size : 192 MiB (25%)
Language : English
Merry Christmas
						
FileSize
Saving Santa/savingsanta.mp4776.50 Mb
Saving Santa/ScreenShots/3.png1.67 Mb
Saving Santa/ScreenShots/4.png1.26 Mb
Saving Santa/ScreenShots/6.png1.04 Mb
Saving Santa/ScreenShots/1.png697.46 Kb
Saving Santa/ScreenShots/5.png644.81 Kb
Saving Santa/ScreenShots/2.png558.59 Kb
Saving Santa/PcTechPaul.nfo5.50 Kb
TrackerSeedsLeechsDownloaded
udp://tracker.publicbt.com:80/scrape000
udp://tracker.openbittorrent.com:80/scrape000
udp://tracker.istole.it:80/scrape000
udp://9.rarbg.com:2710/scrape000
http://exodus.desync.com/scrape000
Report this torrent
We will carefully monitor this report and react whenever possible.
Thanks for helping us in filtering out bad content and improving TorrentReactor for every other visitor!
Please login or register to be able to report torrents.

Your comment

Please Login or register to be able to add comments.

All comments

No one has added a comment yet. Be the first one.

Related movies

Search for full movies Saving Santa, related to Saving Santa