The Fast and the Furious (2001) [thePiratePimp].avi torrent

Total size: 800.14 Mb Seeds 5 Leechs 0
							The Fast and the Furious (2001) 
General
Complete name : The Fast and the Furious (2001) .avi
Format : AVI
Format/Info : Audio Video Interleave
File size : 800 MiB
Duration : 1h 46mn
Overall bit rate : 1 047 Kbps
Writing application : MEncoder version Beta 4.4.5 building on 20110111
Video
ID : 0
Format : MPEG-4 Visual
Format profile : Advanced Simple@L5
Format settings, BVOP : 2
Format settings, QPel : No
Format settings, GMC : No warppoints
Format settings, Matrix : Default (H.263)
Codec ID : XVID
Codec ID/Hint : XviD
Duration : 1h 46mn
Bit rate : 593 Kbps
Width : 720 pixels
Height : 404 pixels
Display aspect ratio : 16:9
Frame rate : 29.970 fps
Color space : YUV
Chroma subsampling : 4:2:0
Bit depth : 8 bits
Scan type : Progressive
Compression mode : Lossy
Bits/(Pixel*Frame) : 0.068
Stream size : 453 MiB (57%)
Writing library : XviD 1.2.1 (UTC 2008-12-04)
Audio
ID : 1
Format : AC-3
Format/Info : Audio Coding 3
Mode extension : CM (complete main)
Format settings, Endianness : Big
Codec ID : 2000
Duration : 1h 46mn
Bit rate mode : Constant
Bit rate : 448 Kbps
Channel(s) : 6 channels
Channel positions : Front: L C R, Side: L R, LFE
Sampling rate : 48.0 KHz
Bit depth : 16 bits
Compression mode : Lossy
Delay relative to video : 33ms
Stream size : 342 MiB (43%)
Alignment : Split accross interleaves
Interleave, duration : 500 ms (14.98 video frames)
Interleave, preload duration : 500 ms
						
FileSize
The Fast and the Furious (2001) [thePiratePimp].avi800.14 Mb
TrackerSeedsLeechsDownloaded
udp://tracker.publicbt.com:80/scrape1010
udp://tracker.openbittorrent.com:80/scrape1010
udp://tracker.istole.it:80/scrape1010
udp://open.demonii.com:1337/scrape101430
udp://9.rarbg.com:2710/scrape1048
http://exodus.desync.com/scrape000
http://bt1.the9.com:6969/scrape000
http://coppersurfer.tk:6969/scrape000
Report this torrent
We will carefully monitor this report and react whenever possible.
Thanks for helping us in filtering out bad content and improving TorrentReactor for every other visitor!
Please login or register to be able to report torrents.

Your comment
Please Login or register to be able to add comments.
All comments

No one has added a comment yet. Be the first one.

Related torrents
The Fast and the Furious (2001) [thePiratePimp].avi, related to The Fast and the Furious (2001) [thePiratePimp].avi