English

Busta Rhymes - Thank You ft. Q-Tip, Kanye West, Lil Wayne 720p {TriZy}

Total size: 79.72 Mb Seeds 75 Leechs 27
COVER:

SCREENSHOT:
      

INFO:
General
Complete name                            : Busta Rhymes - Thank You ft. Q-Tip, Kanye West, Lil Wayne 720p {TriZy}.mp4
Format                                   : MPEG-4
Format profile                           : Base Media / Version 2
Codec ID                                 : mp42
File size                                : 75.2 MiB
Duration                                 : 4mn 19s
Overall bit rate mode                    : Variable
Overall bit rate                         : 2 431 Kbps
Video
ID                                       : 1
Format                                   : AVC
Format/Info                              : Advanced Video Codec
Format profile                           : High@L3.1
Format settings, CABAC                   : Yes
Format settings, ReFrames                : 1 frame
Codec ID                                 : avc1
Codec ID/Info                            : Advanced Video Coding
Duration                                 : 4mn 19s
Bit rate                                 : 2 237 Kbps
Maximum bit rate                         : 4 886 Kbps
Width                                    : 1 280 pixels
Height                                   : 720 pixels
Display aspect ratio                     : 16:9
Frame rate mode                          : Constant
Frame rate                               : 23.976 fps
Color space                              : YUV
Chroma subsampling                       : 4:2:0
Bit depth                                : 8 bits
Scan type                                : Progressive
Bits/(Pixel*Frame)                       : 0.101
Stream size                              : 69.2 MiB (92%)
Audio
ID                                       : 2
Format                                   : AAC
Format/Info                              : Advanced Audio Codec
Format profile                           : LC
Codec ID                                 : 40
Duration                                 : 4mn 19s
Bit rate mode                            : Variable
Bit rate                                 : 192 Kbps
Maximum bit rate                         : 203 Kbps
Channel(s)                               : 2 channels
Channel positions                        : Front: L R
Sampling rate                            : 44.1 KHz
Compression mode                         : Lossy
Stream size                              : 5.94 MiB (8%)

















FileSize
Busta Rhymes - Thank You ft. Q-Tip, Kanye West, Lil Wayne 720p {TriZy}/Busta Rhymes - Thank You ft. Q-Tip, Kanye West, Lil Wayne 720p {TriZy}.mp475.20 Mb
Busta Rhymes - Thank You ft. Q-Tip, Kanye West, Lil Wayne 720p {TriZy}/Torrent Downloaded From ExtraTorrent.cc.txt352.00 b
Busta Rhymes - Thank You ft. Q-Tip, Kanye West, Lil Wayne 720p {TriZy}/vlcsnap-2013-11-26-08h42m59s248.png462.50 Kb
Busta Rhymes - Thank You ft. Q-Tip, Kanye West, Lil Wayne 720p {TriZy}/vlcsnap-2013-11-26-08h43m07s67.png946.98 Kb
Busta Rhymes - Thank You ft. Q-Tip, Kanye West, Lil Wayne 720p {TriZy}/vlcsnap-2013-11-26-08h43m13s152.png588.63 Kb
Busta Rhymes - Thank You ft. Q-Tip, Kanye West, Lil Wayne 720p {TriZy}/vlcsnap-2013-11-26-08h43m19s212.png867.98 Kb
Busta Rhymes - Thank You ft. Q-Tip, Kanye West, Lil Wayne 720p {TriZy}/vlcsnap-2013-11-26-08h43m26s11.png458.72 Kb
Busta Rhymes - Thank You ft. Q-Tip, Kanye West, Lil Wayne 720p {TriZy}/vlcsnap-2013-11-26-08h43m42s175.png625.74 Kb
Busta Rhymes - Thank You ft. Q-Tip, Kanye West, Lil Wayne 720p {TriZy}/vlcsnap-2013-11-26-08h43m48s236.png684.04 Kb
TrackerSeedsLeechsDownloaded
udp://open.demonii.com:1337/scrape514466
udp://pow7.com:80/scrape5310
udp://tracker.token.ro:80/scrape5310
udp://tracker.openbittorrent.com:80/scrape8110
udp://tracker.prq.to:80/scrape5310
udp://10.rarbg.com/scrape5310
udp://11.rarbg.com/scrape4210
udp://tracker.prq.to/scrape5310
udp://9.rarbg.com:2710/scrape634262
http://bttracker.crunchbanglinux.org:6969/scrape821745
http://tracker.torrentfrancais.com/scrape921664
http://94.228.192.98/scrape101641
http://exodus.desync.com/scrape000

Report this torrent

We will carefully monitor this report and react whenever possible.
Thanks for helping us in filtering out bad content and improving TorrentReactor for every other visitor!
Please login or register to be able to report torrents.

Your comment

Please Login or register to be able to add comments.

All comments

No one has added a comment yet. Be the first one.

Related torrents

Busta Rhymes - Thank You ft. Q-Tip, Kanye West, Lil Wayne 720p {TriZy}, related to Busta Rhymes - Thank You ft. Q-Tip, Kanye West, Lil Wayne 720p {TriZy}