ALETORRENTY PL Scanner Cop 2 Revenge 1995 DVDRip x264 AC3 Dual Audio ENG Lektor i Napisy PL AT TEAM
Suspicious
Needs verification

ALETORRENTY PL Scanner Cop 2 Revenge 1995 DVDRip x264 AC3 Dual Audio ENG Lektor i Napisy PL AT TEAM

Total size: 1.60 Gb Seeds 0 Leechs 8
							
Description:
gatunek:	Horror, Sci-Fi
produkcja:	USA
reżyseria:	Steve Barnett
scenariusz:	Mark Sevi
Premiera: 16 May 1995 (USA)
Ratings: 4,1/10 from 364 usershttp://www.imdb.com/title/tt0114344/?ref_=fn_al_tt_1
Filmweb: 5,6/10http://www.filmweb.pl/film/Scanner+Cop+2%3A+Rewan%C5%BC-1995-94469
Opis:
Samuel Staziak, policjant o nad ludzkich zdolnościach umysłowych, 
wraca by ująć renegata Volkina, który powiększa swoją moc pozyskując zdolności telepatyczne zabijając innych scannerów.
Storyline:
A scanner cop tracks a renegade scanner, who is building his power by siphoning the power of other weaker scanners. 
For those, who have not yet seen any of the scanner series, a scanner is a mind controller.
Stars:
Daniel Quinn	 ...	Detective Samuel Staziak
Patrick Kilpatrick	 ...	Karl Volkin
Khrystyne Haje	 ...	Carrie Goodart
Stephen Mendel	 ...	Detective Jim Mullins
Robert Forster	 ...	Captain Jack Bitters
Brenda Swanson	 ...	Glory Avionis
Jerry Potter	 ...	Sheriff Jake
Jewel Shepard	 ...	Nurse
Tony Fasce	 ...	Pickpocket Jones
Terrie Snell	 ...	Washer Woman
Jim Blumetti	 ...	Old Cop
Eric Chambers	 ...	Young Cop
Evan MacKenzie	 ...	J.J.
Barbara Tarbuck	 ...	Rachel Staziak
Eugene Robert Glazer	 ...	Institute Director
Info:
Source: DVD PAL
Language: English, Polish lektor 
Subtitles: Polish
Format : Matroska
Format version : Version 4 / Version 2
File size : 1.60 GiB
Duration : 1h 30mn
Overall bit rate : 2 515 Kbps
Movie name : Scanner Cop 2 Revenge 1995 
Encoded date : UTC 2013-09-25 08:20:47
Writing application : mkvmerge v6.2.0 ('Promised Land') built on Apr 28 2013 12:22:01
Writing library : libebml v1.3.0 + libmatroska v1.4.0
Video
ID : 1
Format : AVC
Format/Info : Advanced Video Codec
Format profile : High@L3.0
Format settings, CABAC : Yes
Format settings, ReFrames : 4 frames
Codec ID : V_MPEG4/ISO/AVC
Duration : 1h 30mn
Bit rate : 2 000 Kbps
Width : 704 pixels
Height : 544 pixels
Display aspect ratio : 1.294
Frame rate mode : Constant
Frame rate : 25.000 fps
Color space : YUV
Chroma subsampling : 4:2:0
Bit depth : 8 bits
Scan type : Progressive
Bits/(Pixel*Frame) : 0.209
Stream size : 1.24 GiB (78%)
Title : AT-TEAM
Writing library : x264 core 112
Language : English
Default : Yes
Forced : No
Color primaries : BT.601 NTSC
Transfer characteristics : BT.709
Matrix coefficients : BT.601
Audio #1
ID : 2
Format : AC-3
Format/Info : Audio Coding 3
Mode extension : CM (complete main)
Format settings, Endianness : Big
Codec ID : A_AC3
Duration : 1h 30mn
Bit rate mode : Constant
Bit rate : 192 Kbps
Channel(s) : 2 channels
Channel positions : Front: L R
Sampling rate : 48.0 KHz
Bit depth : 16 bits
Compression mode : Lossy
Stream size : 125 MiB (8%)
Title : AT-TEAM
Language : Polish
Default : Yes
Forced : No
Audio #2
ID : 3
Format : AC-3
Format/Info : Audio Coding 3
Mode extension : CM (complete main)
Format settings, Endianness : Big
Codec ID : A_AC3
Duration : 1h 30mn
Bit rate mode : Constant
Bit rate : 320 Kbps
Channel(s) : 2 channels
Channel positions : Front: L R
Sampling rate : 48.0 KHz
Bit depth : 16 bits
Compression mode : Lossy
Stream size : 208 MiB (13%)
Title : AT-TEAM
Language : English
Default : No
Forced : No
Text #1
ID : 4
Format : VobSub
Muxing mode : zlib
Codec ID : S_VOBSUB
Codec ID/Info : The same subtitle format used on DVDs
Title : AT-TEAM
Language : Polish
Default : No
Forced : No
FileSize
[ALETORRENTY.PL] Scanner Cop 2 Revenge 1995 [DVDRip.x264.AC3.Dual Audio][ENG][Lektor i Napisy PL][AT-TEAM]/Scanner Cop 2 Revenge 1995 [DVDRip.x264.AC3.Dual Audio][ENG][Lektor i Napisy PL][AT-TEAM].mkv1.60 Gb
[ALETORRENTY.PL] Scanner Cop 2 Revenge 1995 [DVDRip.x264.AC3.Dual Audio][ENG][Lektor i Napisy PL][AT-TEAM]/AT-TEAM old movie.jpg140.78 Kb
[ALETORRENTY.PL] Scanner Cop 2 Revenge 1995 [DVDRip.x264.AC3.Dual Audio][ENG][Lektor i Napisy PL][AT-TEAM]/Scanner cop 2.jpg108.84 Kb
[ALETORRENTY.PL] Scanner Cop 2 Revenge 1995 [DVDRip.x264.AC3.Dual Audio][ENG][Lektor i Napisy PL][AT-TEAM]/AT-TEAM.jpg36.66 Kb
[ALETORRENTY.PL] Scanner Cop 2 Revenge 1995 [DVDRip.x264.AC3.Dual Audio][ENG][Lektor i Napisy PL][AT-TEAM]/Read iNFO.txt2.07 Kb
[ALETORRENTY.PL] Scanner Cop 2 Revenge 1995 [DVDRip.x264.AC3.Dual Audio][ENG][Lektor i Napisy PL][AT-TEAM]/Download Seed torrents at AleTorrenty.pl.txt388.00 b
[ALETORRENTY.PL] Scanner Cop 2 Revenge 1995 [DVDRip.x264.AC3.Dual Audio][ENG][Lektor i Napisy PL][AT-TEAM]/Ale Torrenty Team enjoy !.url111.00 b
[ALETORRENTY.PL] Scanner Cop 2 Revenge 1995 [DVDRip.x264.AC3.Dual Audio][ENG][Lektor i Napisy PL][AT-TEAM]/Download Seed torrents at flashtorrents.org.txt43.00 b
[ALETORRENTY.PL] Scanner Cop 2 Revenge 1995 [DVDRip.x264.AC3.Dual Audio][ENG][Lektor i Napisy PL][AT-TEAM]/Download Seed torrents at areafiles.org.txt39.00 b
[ALETORRENTY.PL] Scanner Cop 2 Revenge 1995 [DVDRip.x264.AC3.Dual Audio][ENG][Lektor i Napisy PL][AT-TEAM]/Download Seed torrents at BTScene.org.txt37.00 b
[ALETORRENTY.PL] Scanner Cop 2 Revenge 1995 [DVDRip.x264.AC3.Dual Audio][ENG][Lektor i Napisy PL][AT-TEAM]/Download Seed torrents at divxhunt.me.txt37.00 b
[ALETORRENTY.PL] Scanner Cop 2 Revenge 1995 [DVDRip.x264.AC3.Dual Audio][ENG][Lektor i Napisy PL][AT-TEAM]/Download Seed torrents at p2pdl.com.txt35.00 b
TrackerSeedsLeechsDownloaded
udp://tracker.publicbt.com:80/scrape038
udp://tracker.openbittorrent.com:80/scrape023
udp://tracker.istole.it:80/scrape030
http://fr33domtracker.h33t.eu:3310/scrape000
http://fr33dom.h33t.eu:3310/scrape000
http://tracker.librebt.com/scrape000
http://flashtorrents.org/scrape.php000
http://p2pdl.com:2710/scrape000
Report this torrent
We will carefully monitor this report and react whenever possible.
Thanks for helping us in filtering out bad content and improving TorrentReactor for every other visitor!
Please login or register to be able to report torrents.

Your comment

Please Login or register to be able to add comments.

All comments

No one has added a comment yet. Be the first one.

Related movies

Search for full movies ALETORRENTY PL Scanner Cop 2 Revenge 1995 DVDRip x264 AC3 Dual Audio ENG Lektor i Napisy PL AT TEAM, related to ALETORRENTY PL Scanner Cop 2 Revenge 1995 DVDRip x264 AC3 Dual Audio ENG Lektor i Napisy PL AT TEAM