Download 7 Pecados Rurais 2013 720p BRRip x264 DTS HD torrent

7 Pecados Rurais 2013 720p BRRip x264 DTS HD torrent

Total size: 776.01 Mb Seeds 7 Leechs 0
7 Pecados Rurais 2013 720p BRRip x264 DTS HD
Format                           : AVIFormat/Info                      : Audio Video InterleaveFormat profile                   : OpenDMLOverall bit rate                 : 1 800 KbpsWriting application              : VirtualDubMod 1.5.10.2 (build 2542/release)Writing library                  : VirtualDubMod build 2542/releaseVideoFormat                           : MPEG-4 VisualFormat settings, BVOP            : YesFormat settings, QPel            : NoFormat settings, Matrix          : Default (MPEG)Codec ID                         : x264Codec ID/Hint                    : x264Bit rate                         : 1 411 KbpsWidth                            : 1280 pixelsHeight                           : 720 pixelsDisplay aspect ratio             : 16:9Frame rate                       : 29.97 fpsResolution                       : 24 bitsColorimetry                      : 4:2:0Scan type                        : ProgressiveBits/(Pixel*Frame)               : 0.338Stream size                      : 1.03 GiB (78%)AudioFormat                           : AC-3Format/Info                      : Audio Coding 3Codec ID                         : 2000Bit rate mode                    : ConstantBit rate                         : 384 KbpsChannel(s)                       : 6 channelsChannel positions                : Front: L C R, Surround: L R, LFESampling rate                    : 48.0 KHzStream size                      : 287 MiB (21%)Alignment                        : Aligned on interleavesInterleave, duration             : 64 ms (1.53 video frames)Interleave, preload duration     : 192 ms
FileSize
7.Pecados.Rurais.2013.720p.BRRip.x264.DTS.HD/Dmt Nfo.txt1.68 Kb
7.Pecados.Rurais.2013.720p.BRRip.x264.DTS.HD/Torrent Downloaded From downloadhindimovies.in.txt1.68 Kb
7.Pecados.Rurais.2013.720p.BRRip.x264.DTS.HD/7.Pecados.Rurais.2013.720p.BRRip.x264.DTS.HD.avi10.00 Mb
7.Pecados.Rurais.2013.720p.BRRip.x264.DTS.HD/7.Pecados.Rurais.2013.720p.BRRip.x264.DTS.HD.nfo1.71 Kb
7.Pecados.Rurais.2013.720p.BRRip.x264.DTS.HD/7.Pecados.Rurais.2013.720p.BRRip.x264.DTS.HD.jpeg1.00 Mb
7.Pecados.Rurais.2013.720p.BRRip.x264.DTS.HD/Torrent downloaded from h33t.com.txt1.68 Kb
7.Pecados.Rurais.2013.720p.BRRip.x264.DTS.HD/7.Pecados.Rurais.2013.720p.BRRip.x264.DTS.HD/7.Pecados.Rurais.2013.720p.BRRip.x264.DTS.HD.rar765.00 Mb
TrackerSeedsLeechsDownloaded
udp://tracker.publicbt.com:80/scrape2010
udp://tracker.openbittorrent.com:80/scrape2010
udp://tracker.istole.it:80/scrape300
http://www.h33t.com:3310/scrape000
http://scrape.torrentsmd.com:8080/scrape.php000
http://retracker.hotplug.ru:2710/scrape000
http://nyaatorrents.info:3277/scrape000
http://fr33dom.h33t.com:3310/scrape000
http://tracker.ccc.de/scrape000
http://open.tracker.thepiratebay.org/scrape000
http://denis.stalker.h3q.com:6969/scrape000
http://scrape.torrentsmd.com:8080/scrape000
http://www.itoma.info/tracker/scrape.php000
http://secure.pow7.com/scrape000
http://pow7.com/scrape000
http://dotehwerk.appspot.com/scrape000
http://amplicate.appspot.com/scrape000
http://btrs-atrack.appspot.com/scrape000
http://mcasttracker.appspot.com/scrape000
http://memtracker.appspot.com/scrape000
http://www.th0r1n.com/scrape000
http://tracker.publicbt.com/scrape000
http://tracker.prq.to/scrape000
http://torrent-downloads.to:5869/scrape000
http://tv.tracker.prq.to:80/scrape.php000
http://ipv4.tracker.harry.lu/scrape000
http://10.rarbg.com/scrape000
http://10.rarbg.com:80/scrape000
http://tracker.token.ro:80/scrape000
http://tracker.prq.to:80/scrape.php000
http://tracker.publicbt.com:80/scrape000
http://tpb.tracker.prq.to:80/scrape.php000
http://red.tracker.prq.to:80/scrape000
http://tv.tracker.prq.to:80/scrape000
http://tbp.tracker.prq.to:80/scrape000
http://exodus.desync.com:6969/scrape000
http://tracker.coppersurfer.tk:6969/scrape000
http://tracker.torrentbay.to:6969/scrape000
http://cpleft.com:2710/scrape000
http://scrape.xxx-tracker.com:2710/scrape000
http://tracker.novalayer.org:6969/scrape000
http://bt.home-ix.ru/scrape000
http://ix3.rutracker.net/scrape000
http://tracker.blazing.de:6969/scrape000
http://bt.firebit.org:2710/scrape000
http://gdbt.3322.org:6969/scrape000
http://sombarato.org:6969/scrape000
Report this torrent
We will carefully monitor this report and react whenever possible.
Thanks for helping us in filtering out bad content and improving TorrentReactor for every other visitor!
Please login or register to be able to report torrents.

Your comment
Please Login or register to be able to add comments.
All comments

No one has added a comment yet. Be the first one.

Related torrents
7 Pecados Rurais 2013 720p BRRip x264 DTS HD, related to 7 Pecados Rurais 2013 720p BRRip x264 DTS HD