Blue Eyes - Yo Yo Honey Singh - Video Song - Full HD 1080p - CodeGuru.mp4 torrent

Total size: 144.33 Mb Seeds 4 Leechs 1
File Info:
General
Complete name                            : Blue Eyes - Yo Yo Honey Singh - Video Song - Full HD 1080p - CodeGuru.mp4
Format                                   : MPEG-4
Format profile                           : Base Media / Version 2
Codec ID                                 : mp42
File size                                : 144 MiB
Duration                                 : 4mn 2s
Overall bit rate mode                    : Variable
Overall bit rate                         : 4 987 Kbps
Encoded date                             : UTC 2013-11-21 13:12:32
Tagged date                              : UTC 2013-11-21 14:14:53
Video
ID                                       : 1
Format                                   : AVC
Format/Info                              : Advanced Video Codec
Format profile                           : [email protected]
Format settings, CABAC                   : Yes
Format settings, ReFrames                : 4 frames
Codec ID                                 : avc1
Codec ID/Info                            : Advanced Video Coding
Duration                                 : 4mn 2s
Bit rate mode                            : Variable
Bit rate                                 : 4 728 Kbps
Width                                    : 1 920 pixels
Height                                   : 1 080 pixels
Display aspect ratio                     : 16:9
Frame rate mode                          : Variable
Frame rate                               : 23.976 fps
Minimum frame rate                       : 23.968 fps
Maximum frame rate                       : 23.981 fps
Color space                              : YUV
Chroma subsampling                       : 4:2:0
Bit depth                                : 8 bits
Scan type                                : Progressive
Bits/(Pixel*Frame)                       : 0.095
Stream size                              : 137 MiB (95%)
Writing library                          : x264 core 130 r2273 b3065e6
Encoded date                             : UTC 2013-11-21 13:12:32
Tagged date                              : UTC 2013-11-21 14:14:53
Color primaries                          : BT.709
Transfer characteristics                 : BT.709
Matrix coefficients                      : BT.709
Audio
ID                                       : 2
Format                                   : AAC
Format/Info                              : Advanced Audio Codec
Format profile                           : LC
Codec ID                                 : 40
Duration                                 : 4mn 2s
Bit rate mode                            : Variable
Bit rate                                 : 256 Kbps
Maximum bit rate                         : 355 Kbps
Channel(s)                               : 2 channels
Channel positions                        : Front: L R
Sampling rate                            : 44.1 KHz
Compression mode                         : Lossy
Delay relative to video                  : 83ms
Stream size                              : 7.41 MiB (5%)
Encoded date                             : UTC 2013-11-21 13:12:32
Tagged date                              : UTC 2013-11-21 14:13:32
Screenshots:
FileSize
Blue Eyes - Yo Yo Honey Singh - Video Song - Full HD 1080p - CodeGuru.mp4144.33 Mb
TrackerSeedsLeechsDownloaded
udp://tracker.openbittorrent.com:80/scrape3110
udp://tracker.publicbt.com:80/scrape1010
Report this torrent
We will carefully monitor this report and react whenever possible.
Thanks for helping us in filtering out bad content and improving TorrentReactor for every other visitor!
Please login or register to be able to report torrents.

Your comment
Please Login or register to be able to add comments.
All comments

No one has added a comment yet. Be the first one.

Related torrents
Blue Eyes - Yo Yo Honey Singh - Video Song - Full HD 1080p - CodeGuru.mp4, related to Blue Eyes - Yo Yo Honey Singh - Video Song - Full HD 1080p - CodeGuru.mp4