Ram Leela 2013 Hindi Movies SCamRip x264 ESubs with Sample ~ ☻rDX☻ torrent

Total size: 706.43 Mb Seeds 38 Leechs 7
Ram Leela 2013 Hindi Movies SCamRip x264 ESubs with Sample ~ ☻rDX☻
							
Ram Leela 2013 Hindi Movies SCamRip x264 ESubs with Sample ~ ☻rDX☻Please check SCREEN SHOTS first :http://imageshere.cu.cc/2013/11/RamLeela/1.htmlhttp://imageshere.cu.cc/2013/11/RamLeela/2.htmlhttp://imageshere.cu.cc/2013/11/RamLeela/3.htmlhttp://imageshere.cu.cc/2013/11/RamLeela/4.htmlhttp://imageshere.cu.cc/2013/11/RamLeela/5.htmlhttp://imageshere.cu.cc/2013/11/RamLeela/6.htmlAll rDX torrents are Seeding From the 1Gbps Seedbox 24X7
Format : Matroska
Format version : Version 2
File size : 697 MiB
Duration : 2h 4mn
Overall bit rate : 786 Kbps
Video
ID : 1
Format : AVC
Format/Info : Advanced Video Codec
Format profile : [email protected]
Format settings, CABAC : Yes
Format settings, ReFrames : 4 frames
Codec ID : V_MPEG4/ISO/AVC
Duration : 2h 4mn
Bit rate : 656 Kbps
Width : 640 pixels
Height : 272 pixels
Display aspect ratio : 2.35:1
Frame rate mode : Constant
Frame rate : 25.000 fps
Color space : YUV
Chroma subsampling : 4:2:0
Bit depth : 8 bits
Scan type : Progressive
Bits/(Pixel*Frame) : 0.151
Stream size : 570 MiB (82%)
Writing library : x264 core 133 r2334 a3ac64b
Default : Yes
Forced : No
Audio
ID : 2
Format : AC-3
Format/Info : Audio Coding 3
Mode extension : CM (complete main)
Format settings, Endianness : Big
Codec ID : A_AC3
Duration : 2h 4mn
Bit rate mode : Constant
Bit rate : 128 Kbps
Channel(s) : 2 channels
Channel positions : Front: L R
Sampling rate : 48.0 KHz
Bit depth : 16 bits
Compression mode : Lossy
Stream size : 114 MiB (16%)
Default : Yes
Forced : No
						
FileSize
Ram Leela 2013 Hindi Movies SCamRip x264 ESubs with Sample ~ ☻rDX☻/Ram Leela 2013 Hindi Movies SCamRip x264 ESubs ~ ☻rDX☻.mkv697.37 Mb
Ram Leela 2013 Hindi Movies SCamRip x264 ESubs with Sample ~ ☻rDX☻/Sample ~ Ram Leela 2013 Hindi Movies SCamRip x264 ESubs ~ ☻rDX☻.mkv9.06 Mb
TrackerSeedsLeechsDownloaded
udp://tracker.publicbt.com:80/scrape3010
udp://tracker.openbittorrent.com:80/scrape5110
udp://tracker.istole.it:80/scrape9110
udp://coppersurfer.tk:6969/scrape714
http://tracker.ex.ua/scrape7210
http://exodus.desync.com/scrape7224
http://tracker.coppersurfer.tk:6969/scrape000
Report this torrent
We will carefully monitor this report and react whenever possible.
Thanks for helping us in filtering out bad content and improving TorrentReactor for every other visitor!
Please login or register to be able to report torrents.

Your comment
Please Login or register to be able to add comments.
All comments

No one has added a comment yet. Be the first one.

Related torrents
Ram Leela 2013 Hindi Movies SCamRip x264 ESubs with Sample ~ ☻rDX☻, related to Ram Leela 2013 Hindi Movies SCamRip x264 ESubs with Sample ~ ☻rDX☻