About Time 2013 DVDRip XviD MAXSPEED

About Time 2013 DVDRip XviD MAXSPEED

Total size: 669.83 Mb
Removed by the request of copyright owner

About Time 2013 DVDRip XviD MAXSPEED



Writing library                          : VirtualDubMod build 2542/release
Original source form                     : MAX TORRENTZ
Copyright                                : SIGISMUNT


Video
ID                                       : 0
Format                                   : MPEG-4 Visual
Format profile                           : Advanced Simple@L5
Format settings, BVOP                    : 2
Format settings, QPel                    : No
Format settings, GMC                     : No warppoints
Format settings, Matrix                  : Custom
Codec ID                                 : XVID
Codec ID/Hint                            : XviD
Duration                                 : 1h 49mn
Bit rate                                 : 1 511 Kbps
Width                                    : 720 pixels
Height                                   : 304 pixels
Display aspect ratio                     : 2.35:1
Frame rate                               : 23.976 fps
Color space                              : YUV
Chroma subsampling                       : 4:2:0
Bit depth                                : 8 bits
Scan type                                : Progressive
Compression mode                         : Lossy
Bits/(Pixel*Frame)                       : 0.288
Stream size                              : 1.16 GiB (80%)
Writing library                          : XviD 1.2.1 (UTC 2008-12-04)

Audio
ID                                       : 1
Format                                   : AC-3
Format/Info                              : Audio Coding 3
Mode extension                           : CM (complete main)
Format settings, Endianness              : Big
Codec ID                                 : 2000
Duration                                 : 1h 49mn
Bit rate mode                            : Constant
Bit rate                                 : 384 Kbps
Channel(s)                               : 2 channels
Channel positions                        : Front: L R
Sampling rate                            : 48.0 KHz
Bit depth                                : 16 bits
Compression mode                         : Lossy
Stream size                              : 301 MiB (20%)
Alignment                                : Aligned on interleaves
Interleave, duration                     : 64 ms (1.53 video frames)
Interleave, preload duration             : 192 ms



FileSize
About Time (2013) DVDRip XviD-MAXSPEED/About Time (2013) DVDRip XviD-MAXSPEED.wmv669.62 Mb
About Time (2013) DVDRip XviD-MAXSPEED/www.worldshouts.com.jpg166.38 Kb
About Time (2013) DVDRip XviD-MAXSPEED/About Time (2013) DVDRip XviD-MAXSPEED.srt46.43 Kb
TrackerSeedsLeechsDownloaded
udp://tracker.openbittorrent.com:80/scrape000
udp://tracker.publicbt.com:80/scrape010
http://www.ccde.25u.com/t/scrape.php000

It's removed by the request of copyright owner, but we have tons of cool stuff like this:

Search for full movies About Time 2013 1080p BluRay x264 xRed, related to About Time 2013 1080p BluRay x264 xRed