Download Thor The Dark World Blu ray 2013 2D 3D MultiSubs torrent
Suspicious
Needs verification

Thor The Dark World Blu ray 2013 2D 3D MultiSubs torrent

Total size: 1.25 Gb Seeds 5 Leechs 2
Thor The Dark World Blu ray 2013 2D 3D MultiSubs
http://i.imgur.com/94Pq0WR.jpg    
Faced with an enemy that even Odin and Asgard cannot withstand, Thor must embark on his most perilous and personal journey yet, one that will reunite him with Jane Foster and force him to sacrifice everything to save us all.

Director: Alan Taylor
Writers: Christopher Yost (screenplay), Christopher Markus (screenplay)
Stars: Chris Hemsworth, Natalie Portman, Tom Hiddleston
Genres: Action | Adventure | Fantasy
Country: USA
Language: English



Format : AVI
Format/Info : Audio Video Interleave
Format profile : OpenDML
Format settings : rec
File size : 1.28 GiB
Duration : 1h 27mn
Overall bit rate : 2 086 Kbps
Writing application : AVI-Mux GUI 1.17.8.3, Feb 16 201019:42:50

Video
ID : 0
Format : MPEG-4 Visual
Format profile : Advanced Simple@L5
Format settings, BVOP : 1
Format settings, QPel : No
Format settings, GMC : No warppoints
Format settings, Matrix : Default (H.263)
Muxing mode : Packed bitstream
Codec ID : XVID
Codec ID/Hint : XviD
Duration : 1h 27mn
Bit rate : 1 888 Kbps
Width : 720 pixels
Height : 320 pixels
Display aspect ratio : 2.25:1
Frame rate : 29.970 fps
Color space : YUV
Chroma subsampling : 4:2:0
Bit depth : 8 bits
Scan type : Progressive
Compression mode : Lossy
Bits/(Pixel*Frame) : 0.273
Stream size : 1.16 GiB (91%)
Writing library : XviD 64

Audio
ID : 1
Format : AC-3
Format/Info : Audio Coding 3
Mode extension : CM (complete main)
Format settings, Endianness : Big
Codec ID : 2000
Duration : 1h 27mn
Bit rate mode : Constant
Bit rate : 192 Kbps
Channel(s) : 2 channels
Channel positions : Front: L R
Sampling rate : 44.1 KHz
Bit depth : 16 bits
Compression mode : Lossy
Stream size : 120 MiB (9%)
Alignment : Aligned on interleaves
Interleave, duration : 70 ms (2.09 video frames)
Interleave, preload duration : 208 ms
Title : Thor 2 moviesounds-New
FileSize
Thor: The Dark World Blu-ray (2013) 2D+3D MultiSubs/Thor: The Dark World Blu-ray (2013) 2D+3D MultiSubs.avi1.25 Gb
TrackerSeedsLeechsDownloaded
udp://tracker.istole.it:80/scrape1010
udp://tracker.openbittorrent.com:80/scrape100
udp://tracker.publicbt.com:80/scrape100
udp://9.rarbg.com:2710/scrape109
http://www.eddie4.nl:6969/scrape120
http://tracker.coppersurfer.tk:6969/scrape000
Report this torrent
We will carefully monitor this report and react whenever possible.
Thanks for helping us in filtering out bad content and improving TorrentReactor for every other visitor!
Please login or register to be able to report torrents.

Your comment

Please Login or register to be able to add comments.

All comments

No one has added a comment yet. Be the first one.

Related torrents

Thor The Dark World Blu ray 2013 2D 3D MultiSubs, related to Thor The Dark World Blu ray 2013 2D 3D MultiSubs