Download Ang Laga De Song - Ram-leela ft. Deepika & Ranveer HD 1080p {GreatPalash} torrent

Ang Laga De Song - Ram-leela ft. Deepika & Ranveer HD 1080p {GreatPalash} torrent

Total size: 57.05 Mb Seeds 3 Leechs 0
Ang Laga De Song - Ram-leela ft. Deepika & Ranveer HD 1080p {GreatPalash}
							Ang Laga De Song - Ram-leela ft. Deepika & Ranveer HD 1080p {GreatPalash}
Witness the sizzling chemistry between Ranveer Singh & Deepika Padukone in "Ang Laga De" from Ram-leela. The song is sung by Aditi Paul & Shail Hada.
Music: Sanjay Leela Bhansali
Lyrics: Siddharth - Garima
Ang Laga De Lyrics:
Ang lagaa de re
Mohe rang lagaa de re..
Ang lagaa de re
Mohe rang lagaa de re
Main toh teri joganiya
Tu jog lagaa de re
Ram ratan dhan, lagan magan mann,
Tann mora chandan re
Ujri kori preet pe aa
Satrang lagaa de re
Raat banjar si hai
Kale khanjar si hai 
Tere seene ki lau
Mere andar bhi hai
Tu hawaa de ise
Toh mera tann jale
Jalaa de re sang jalaa de re
Mohe ang laga de re
Main toh teri joganiya
Tu jog lagaa de re
Eros International & Bhansali Productions presents 'Ram-leela' a Sanjay Leela Bhansali film featuring Ranveer Singh & Deepika Padukone. The film is produced by Kishore Lulla & Sanjay Leela Bhansali & is all set to release in theaters on 15th November, 2013.
Screenshots:-Media Info:-
General
Complete name : Ang Laga De Song - Ram-leela ft. Deepika & Ranveer HD 1080p {GreatPalash}.mp4
Format : MPEG-4
Format profile : Base Media
Codec ID : isom
File size : 56.6 MiB
Duration : 2mn 14s
Overall bit rate mode : Variable
Overall bit rate : 3520 Kbps
Video
ID : 1
Format : AVC
Format/Info : Advanced Video Codec
Format profile : [email protected]
Format settings, CABAC : Yes
Format settings, ReFrames : 3 frames
Codec ID : avc1
Codec ID/Info : Advanced Video Coding
Duration : 2mn 14s
Bit rate mode : Variable
Bit rate : 3 260 Kbps
Maximum bit rate : 19.2 Mbps
Width : 1920 pixels
Height : 1080 pixels
Display aspect ratio : 16:9
Frame rate mode : Constant
Frame rate : 25.000 fps
Standard : PAL
Color space : YUV
Chroma subsampling : 4:2:0
Bit depth : 8 bits
Scan type : Progressive
Bits/(Pixel*Frame) : 0.063
Stream size : 52.4 MiB (93%)
Audio
ID : 2
Format : AAC
Format/Info : Advanced Audio Codec
Format profile : LC
Codec ID : 40
Duration : 2mn 14s
Bit rate mode : Constant
Bit rate : 254 Kbps
Channel(s) : 2 channels
Channel positions : Front: L R
Sampling rate : 44.1 KHz
Compression mode : Lossy
Stream size : 4.08 MiB (7%)
FileSize
Ang Laga De Song - Ram-leela ft. Deepika & Ranveer HD 1080p {GreatPalash}/Ang Laga De Song - Ram-leela ft. Deepika & Ranveer HD 1080p {GreatPalash}.mp456.64 Mb
Ang Laga De Song - Ram-leela ft. Deepika & Ranveer HD 1080p {GreatPalash}/Screenshots/Poster.jpg297.88 Kb
Ang Laga De Song - Ram-leela ft. Deepika & Ranveer HD 1080p {GreatPalash}/Screenshots/3.jpg36.61 Kb
Ang Laga De Song - Ram-leela ft. Deepika & Ranveer HD 1080p {GreatPalash}/Screenshots/4.jpg35.31 Kb
Ang Laga De Song - Ram-leela ft. Deepika & Ranveer HD 1080p {GreatPalash}/Screenshots/1.jpg27.48 Kb
Ang Laga De Song - Ram-leela ft. Deepika & Ranveer HD 1080p {GreatPalash}/Screenshots/2.jpg20.62 Kb
Ang Laga De Song - Ram-leela ft. Deepika & Ranveer HD 1080p {GreatPalash}/Ang Laga De Song - Ram-leela ft. Deepika & Ranveer HD 1080p {GreatPalash}.nfo3.43 Kb
Ang Laga De Song - Ram-leela ft. Deepika & Ranveer HD 1080p {GreatPalash}/Torrent downloaded from Silvertorrent.org.txt86.00 b
Ang Laga De Song - Ram-leela ft. Deepika & Ranveer HD 1080p {GreatPalash}/Torrent Downloaded From GloTorrents.com.txt39.00 b
Ang Laga De Song - Ram-leela ft. Deepika & Ranveer HD 1080p {GreatPalash}/Torrent Downloaded From Kickass.to.txt34.00 b
TrackerSeedsLeechsDownloaded
udp://tracker.publicbt.com:80/scrape1010
udp://tracker.openbittorrent.com:80/scrape0010
udp://open.demonii.com:1337/scrape20103
udp://9.rarbg.com:2710/scrape008
http://exodus.desync.com/scrape000
Report this torrent
We will carefully monitor this report and react whenever possible.
Thanks for helping us in filtering out bad content and improving TorrentReactor for every other visitor!
Please login or register to be able to report torrents.

Your comment
Please Login or register to be able to add comments.
All comments

No one has added a comment yet. Be the first one.

Related torrents
Ang Laga De Song - Ram-leela ft. Deepika & Ranveer HD 1080p {GreatPalash}, related to Ang Laga De Song - Ram-leela ft. Deepika & Ranveer HD 1080p {GreatPalash}