Download Autumn Sonata 1978 BRRip XviD CODY torrent

Autumn Sonata 1978 BRRip XviD CODY torrent

Total size: 898.86 Mb Seeds 4 Leechs 0
							General
Complete name : Autumn Sonata  BRRip XviD - CODY.avi
Format : AVI
Format/Info : Audio Video Interleave
File size : 899 MiB
Duration : 1h 29mn
Overall bit rate : 1 398 Kbps
Writing application : VirtualDubMod 1.5.10.3 | www.virtualdub-fr.org || (build 2550/release)
Writing library : VirtualDubMod build 2550/release
Video
ID : 0
Format : MPEG-4 Visual
Format profile : Advanced Simple@L5
Format settings, BVOP : 4
Format settings, QPel : No
Format settings, GMC : No warppoints
Format settings, Matrix : Default (H.263)
Codec ID : XVID
Codec ID/Hint : XviD
Duration : 1h 29mn
Bit rate : 1 260 Kbps
Width : 720 pixels
Height : 408 pixels
Display aspect ratio : 16:9
Frame rate : 25.000 fps
Color space : YUV
Chroma subsampling : 4:2:0
Bit depth : 8 bits
Scan type : Progressive
Compression mode : Lossy
Bits/(Pixel*Frame) : 0.172
Stream size : 810 MiB (90%)
Writing library : XviD 73
Audio
ID : 1
Format : MPEG Audio
Format version : Version 1
Format profile : Layer 3
Codec ID : 55
Codec ID/Hint : MP3
Duration : 1h 29mn
Bit rate mode : Constant
Bit rate : 128 Kbps
Channel(s) : 2 channels
Sampling rate : 48.0 KHz
Compression mode : Lossy
Stream size : 82.3 MiB (9%)
Alignment : Aligned on interleaves
Interleave, duration : 40 ms (1.00 video frame)
Interleave, preload duration : 504 ms
Writing library : LAME3.99r
Encoding settings : -m s -V 4 -q 2 -lowpass 17 -b 128
Audio language : Swedish
IMDB link: http://www.imdb.com/title/tt0077711/
Subtitles included : English, Romanian
Please seed at least 1,5:1. This way this torrent has a chance to survive !
Thanks. Enjoy !!
						
FileSize
Autumn Sonata [1978] BRRip XviD - CODY/Autumn Sonata [1978] BRRip XviD - CODY.avi898.60 Mb
Autumn Sonata [1978] BRRip XviD - CODY/Autumn Sonata [1978] BRRip XviD - CODY.English.srt70.79 Kb
Autumn Sonata [1978] BRRip XviD - CODY/Autumn Sonata [1978] BRRip XviD - CODY.srt79.59 Kb
Autumn Sonata [1978] BRRip XviD - CODY/Cover.jpg120.90 Kb
Autumn Sonata [1978] BRRip XviD - CODY/Info_by_Cody.txt2.72 Kb
Autumn Sonata [1978] BRRip XviD - CODY/Tracked by h33t.com.txt40.00 b
TrackerSeedsLeechsDownloaded
udp://tracker.openbittorrent.com:80/scrape100
udp://tracker.publicbt.com:80/scrape1010
udp://tracker.token.ro:80/scrape1010
udp://bt.rghost.net:80/scrape1010
http://tracker.thepiratebay.org/scrape000
http://fr33dom.h33t.com:3310/scrape000
http://exodus.desync.com:6969/scrape000
Report this torrent
We will carefully monitor this report and react whenever possible.
Thanks for helping us in filtering out bad content and improving TorrentReactor for every other visitor!
Please login or register to be able to report torrents.

Your comment

Please Login or register to be able to add comments.

All comments

No one has added a comment yet. Be the first one.

Related torrents

Autumn Sonata 1978 BRRip XviD CODY, related to Autumn Sonata 1978 BRRip XviD CODY