The Wolverine 2013 BRRip 720p x264 AAC PRiSTiNE P2PDL

The Wolverine 2013 BRRip 720p x264 AAC PRiSTiNE P2PDL

Total size: 858.06 Mb Seeds 67 Leechs 9
							The Wolverine 2013 BRRip 720p x264 AAC - PRiSTiNEGenre: Action | Adventure | Fantasy 
Plot: When Wolverine is summoned to Japan by an old acquaintance, he is embroiled in a
conflict that forces him to confront his own demons. 
Director: James Mangold
Stars: Hugh Jackman, Will Yun Lee, Tao Okamoto.
Rated: PG-13 for sequences of intense sci-fi action and violence, some sexuality and language.Info:http://www.imdb.com/title/tt1430132/Trailer:https://www.youtube.com/watch?v=cmcBOIfhHQYFormat : MPEG-4
File size : 851 MiB
Duration : 2h 18mn
Overall bit rate : 861 Kbps
Video
Format : AVC
Bit rate : 779 Kbps
Width : 1 280 pixels
Height : 536 pixels
Display aspect ratio : 2.40:1
Frame rate mode : Constant
Frame rate : 23.976 fps
Bit depth : 10 bits
Stream size : 769 MiB (90%)
Writing library : x264 core 138 r2358
Audio
Format : AAC
Bit rate mode : Variable
Bit rate : 79.9 Kbps
Channel count : 2 channels
Channel positions : Front: L R
Sampling rate : 48.0 KHz
Stream size : 79.0 MiB (9%)
Language : English
Subtitle : Yes (English)
Source : extended.720p.bluray.x264-sparks 
Note: Last upload from me, for a while. Enjoy!Screenshots:     
----------------------------------------------------------------------------------------------------Encoded using revolutionary 10bit encoding, which enables us to provide you more crispier 
and sharper images at small sizes, just make sure you follow our instructions without a fault.
Recommend to you to use latest version of VLC player. Install K-Lite Codec Pack or shark007 codecs
in case of any kind of problem in playback (For non-VLC Media Player users). Alternat																			
Core AVC codecs, the fastest decoder that there is coupled with Community Center Codec Pack and play
on Windows Media Player Classic. Check sample to be sure.
Enjoy!
Encoder Notes: Looking For Early Access To Anything You Can Provide DVDScr, R5, DVDR, BluRay, Direct
Audio, Music Releases and Seedboxes. We require dedicated servers, so as to do more and fast releases of movies.
If You Got anything to offer contact us at "prg@hush.com".   
						
FileSize
The Wolverine 2013 BRRip 720p x264 AAC - PRiSTiNE [P2PDL]/Torrent downloaded from P2PDL.com.txt33.00 b
The Wolverine 2013 BRRip 720p x264 AAC - PRiSTiNE [P2PDL]/The Wolverine 2013 BRRip 720p x264 AAC - PRiSTiNE.srt69.50 Kb
The Wolverine 2013 BRRip 720p x264 AAC - PRiSTiNE [P2PDL]/The Wolverine 2013 BRRip 720p x264 AAC - PRiSTiNE.nfo4.91 Kb
The Wolverine 2013 BRRip 720p x264 AAC - PRiSTiNE [P2PDL]/The Wolverine 2013 BRRip 720p x264 AAC - PRiSTiNE.mp4851.24 Mb
The Wolverine 2013 BRRip 720p x264 AAC - PRiSTiNE [P2PDL]/Sample.mp46.75 Mb
TrackerSeedsLeechsDownloaded
udp://tracker.publicbt.com:80/scrape12110
udp://tracker.openbittorrent.com:80/scrape10110
udp://open.demonii.com:1337/scrape1414429
udp://tracker.token.ro:80/scrape12110
udp://11.rarbg.me:80/scrape10110
http://tracker.trackerfix.com/scrape421584
http://tracker.torrentfrancais.com/scrape521476
http://p2pdl.com:2710/scrape000
http://tracker.nwps.ws:6969/scrape000
Report this torrent
We will carefully monitor this report and react whenever possible.
Thanks for helping us in filtering out bad content and improving TorrentReactor for every other visitor!
Please login or register to be able to report torrents.

Your comment

Please Login or register to be able to add comments.

All comments

No one has added a comment yet. Be the first one.

Related movies

Search for full movies The Wolverine 2013 BRRip 720p x264 AAC PRiSTiNE P2PDL, related to The Wolverine 2013 BRRip 720p x264 AAC PRiSTiNE P2PDL