Man of Steel 2013 DVDRip XviD MAX
Suspicious
Needs verification

Man of Steel 2013 DVDRip XviD MAX

Total size: 579.12 Mb Seeds 0 Leechs 0
Man of Steel 2013 DVDRip XviD MAX
http://image.bayimg.com/a7667653fa6878da79ea6925e7e2e7edf7bf71bc.jpg

http://img801.imageshack.us/img801/1359/plhx.jpg

Screens:
 
http://img43.imageshack.us/img43/925/citv.jpg 
http://img199.imageshack.us/img199/8248/qa6q.jpg 
http://img826.imageshack.us/img826/6933/z0g5.jpg 
http://img854.imageshack.us/img854/5367/1vpd.jpg

Man of Steel (2013) DVDRip XviD-MAX
Format                                   : AVI
Format/Info                              : Audio Video Interleave
File size                                : 1.36 GiB
Duration                                 : 2h 23mn
Overall bit rate                         : 1 358 Kbps
Format settings                          : rec
Writing application                      : VirtualDubMod 1.5.10.2 (build 2542/release)
Writing library                          : VirtualDubMod build 2542/release
Original source form                     : MAX TORRENTZ
Copyright                                : SIGISMUNT

Video
ID                                       : 0
Format                                   : MPEG-4 Visual
Format profile                           : Advanced Simple@L5
Format settings, BVOP                    : 2
Format settings, QPel                    : No
Format settings, GMC                     : No warppoints
Format settings, Matrix                  : Default (H.263)
Codec ID                                 : XVID
Codec ID/Hint                            : XviD
Duration                                 : 2h 23mn
Bit rate                                 : 966 Kbps
Width                                    : 720 pixels
Height                                   : 304 pixels
Display aspect ratio                     : 2.35:1
Frame rate                               : 23.976 fps
Color space                              : YUV
Chroma subsampling                       : 4:2:0
Bit depth                                : 8 bits
Scan type                                : Progressive
Compression mode                         : Lossy
Bits/(Pixel*Frame)                       : 0.184
Stream size                              : 989 MiB (71%)
Writing library                          : XviD 1.2.1 (UTC 2008-12-04)

Audio
ID                                       : 1
Format                                   : AC-3
Format/Info                              : Audio Coding 3
Mode extension                           : CM (complete main)
Format settings, Endianness              : Big
Codec ID                                 : 2000
Duration                                 : 2h 23mn
Bit rate mode                            : Constant
Bit rate                                 : 384 Kbps
Channel(s)                               : 6 channels
Channel positions                        : Front: L C R, Side: L R, LFE
Sampling rate                            : 48.0 KHz
Bit depth                                : 16 bits
Compression mode                         : Lossy
Stream size                              : 393 MiB (28%)
Alignment                                : Aligned on interleaves
Interleave, duration                     : 64 ms (1.53 video frames)
Interleave, preload duration             : 192 ms

Source: DVD (perfect a/v/sync quality,sample included)
This torrent is not seedbox supported,please seed it to the MAX

Note:If you have something to offer as early releases,seedboxes,
links,accounts,etc please contact us on torentz 3xforum ro

Man of Steel (2013) DVDRip XviD-MAX Torrent Free Download
 
http://thepiratebay.sx/user/extremezone/0/7/0

How To Get Your MAXSPEED (uTorrent)

Torrent Client - Preferences - Bandwidth - Number of connections - Set aprox. 500 for each
Torrent Client - Preferences - BiTorrent - Protocol Encryption - Forced
Bandwidth Allocation - High (Set download/upload limit - Unlimited)
Stop Other Active Torrents - Start downloading and wait for connections.
Enjoy and Seed for at least 1:1 ratio. Don't forget to say thanks/leave reviews.
Before downloading you should check/google search sample "release name""sample".
Greets to all actual/future p2p/scene QUALITY groups and affiliate websites.
Don't trust IMDb robot or bad ratings,always watch some trailers first.
Ignore stupid comments/fake/mislabeled/no-DVDrips/CAM/TS/RAR uploads.
Please spread this release/torrent to your friends/forums/etc.
If you need translation subs visit some subtitles sites.
Report if you see online streaming or other spam links.
Recommended movie player VLC PLAYER.		
FileSize
Man of Steel (2013) DVDRip XviD-MAX/Man of Steel (2013) DVDRip XviD-MAX.avi579.12 Mb
TrackerSeedsLeechsDownloaded
udp://tracker.publicbt.com:80/scrape000
udp://tracker.openbittorrent.com:80/scrape000
udp://tracker.istole.it:80/scrape000
udp://9.rarbg.com:2710/scrape000
http://www.eddie4.nl:6969/scrape000
http://tracker1.wasabii.com.tw:6969/scrape000
Report this torrent
We will carefully monitor this report and react whenever possible.
Thanks for helping us in filtering out bad content and improving TorrentReactor for every other visitor!
Please login or register to be able to report torrents.

Your comment

Please Login or register to be able to add comments.

All comments

No one has added a comment yet. Be the first one.

Related movies

Search for full movies Man of Steel 2013 DVDRip XviD MAX, related to Man of Steel 2013 DVDRip XviD MAX