Man Of Steel [2013] BRRip x264 [Eng Sub] [English] torrent

Total size: 666.70 Mb Seeds 26 Leechs 14
							Cover:IMDB Info:www.imdb.com/title/tt0770828/
A young itinerant worker is forced to confront his secret extraterrestrial heritage when Earth is invaded by members of his race.

Director: Zack Snyder
Writers: David S. Goyer (screenplay), Christopher Nolan (story)
Stars: Henry Cavill, Amy Adams, Michael Shannon

Ratings: 7.6/10
Action | Adventure | Fantasy | Sci-Fi

Country: USA | Canada | UK
Language: English

Budget: $225,000,000 (estimated)
Opening Weekend: $116,619,362 (USA) (14 June 2013)
Gross: $291,021,565 (USA) (13 September 2013)

Runtime: 143 minRelease Info:
General
Format : Matroska
Format version : Version 4 / Version 2
File size : 665 MiB
Duration : 2h 23mn
Overall bit rate : 650 Kbps
Movie name : Man Of Steel  BRRip x264  

Video
ID : 1
Format : AVC
Format/Info : Advanced Video Codec
Format profile : [email protected]
Format settings, CABAC : Yes
Format settings, ReFrames : 4 frames
Codec ID : V_MPEG4/ISO/AVC
Duration : 2h 23mn
Bit rate : 520 Kbps
Width : 720 pixels
Height : 300 pixels
Display aspect ratio : 2.40:1
Frame rate mode : Constant
Frame rate : 23.976 fps
Color space : YUV
Chroma subsampling : 4:2:0
Bit depth : 8 bits
Scan type : Progressive
Bits/(Pixel*Frame) : 0.100
Stream size : 521 MiB (78%)
Language : English
Default : Yes
Forced : No

Audio
ID : 2
Format : MPEG Audio
Format version : Version 1
Format profile : Layer 3
Mode : Joint stereo
Mode extension : MS Stereo
Codec ID : A_MPEG/L3
Codec ID/Hint : MP3
Duration : 2h 23mn
Bit rate mode : Constant
Bit rate : 128 Kbps
Channel(s) : 2 channels
Sampling rate : 44.1 KHz
Compression mode : Lossy
Stream size : 131 MiB (20%)
Writing library : LAME3.98.2
Language : English
Default : Yes
Forced : No

Text
ID : 3
Format : UTF-8
Codec ID : S_TEXT/UTF8
Codec ID/Info : UTF-8 Plain Text
Language : English
Default : Yes
Forced : No

Screen Shot:
FileSize
Man Of Steel [2013] BRRip x264 [Eng Sub] [English]/Man Of Steel [2013] BRRip x264 [Eng Sub] [English].mkv664.81 Mb
Man Of Steel [2013] BRRip x264 [Eng Sub] [English]/vlcsnap-2013-10-16-02h01m17s78.png292.63 Kb
Man Of Steel [2013] BRRip x264 [Eng Sub] [English]/vlcsnap-2013-10-16-02h02m34s252.png288.48 Kb
Man Of Steel [2013] BRRip x264 [Eng Sub] [English]/vlcsnap-2013-10-16-02h00m41s158.png266.48 Kb
Man Of Steel [2013] BRRip x264 [Eng Sub] [English]/vlcsnap-2013-10-16-02h01m01s105.png259.25 Kb
Man Of Steel [2013] BRRip x264 [Eng Sub] [English]/vlcsnap-2013-10-16-02h00m32s34.png247.28 Kb
Man Of Steel [2013] BRRip x264 [Eng Sub] [English]/vlcsnap-2013-10-16-02h01m33s150.png229.05 Kb
Man Of Steel [2013] BRRip x264 [Eng Sub] [English]/vlcsnap-2013-10-16-02h01m39s215.png180.17 Kb
Man Of Steel [2013] BRRip x264 [Eng Sub] [English]/vlcsnap-2013-10-16-02h00m56s29.png172.54 Kb
TrackerSeedsLeechsDownloaded
udp://tracker.openbittorrent.com:80/scrape129
udp://tracker.istole.it:80/scrape1210
udp://tracker.publicbt.com:80/scrape1210
udp://12.rarbg.me:80/scrape1210
udp://9.rarbg.me:2710/scrape61548
udp://coppersurfer.tk:6969/scrape401580
udp://ipv4.tracker.harry.lu:80/scrape1210
udp://9.rarbg.com:2710/scrape61548
udp://open.demonii.com:1337/scrape523289
http://tracker.thepiratebay.org/scrape000
http://fr33dom.h33t.com:3310/scrape000
Report this torrent
We will carefully monitor this report and react whenever possible.
Thanks for helping us in filtering out bad content and improving TorrentReactor for every other visitor!
Please login or register to be able to report torrents.

Your comment
Please Login or register to be able to add comments.
All comments

No one has added a comment yet. Be the first one.

Related torrents
Man Of Steel [2013] BRRip x264 [Eng Sub] [English], related to Man Of Steel [2013] BRRip x264 [Eng Sub] [English]