English

Fake torrent

Gravity (2013)[Castellano][DVDRip]

Total size: 700.96 Mb Seeds 0 Leechs 6
Gravity (2013)[Castellano][DVDRip]



Video
ID                             : 0
Format                         : MPEG-4 Visual
Format profile                 : Advanced Simple@L5
Format settings, BVOP          : Yes
Format settings, QPel          : No
Format settings, GMC           : No warppoints
Format settings, Matrix        : Default (H.263)
Codec ID                       : XVID
Codec ID/Hint                  : XviD
Duration                       : 2h 14mn
Bit rate                       : 637 Kbps
Width                          : 640 pixels
Height                         : 272 pixels
Display aspect ratio           : 2.35:1
Frame rate                     : 24.000 fps
Color space                    : YUV
Chroma subsampling             : 4:2:0
Bit depth                      : 8 bits
Scan type                      : Progressive
Compression mode               : Lossy
Bits/(Pixel*Frame)             : 0.152
Stream size                    : 614 MiB (88%)
Writing library                : XviD 1.2.1 (UTC 2008-12-04)

Audio
ID                             : 1
Format                         : MPEG Audio
Format version                 : Version 1
Format profile                 : Layer 3
Mode                           : Joint stereo
Mode extension                 : MS Stereo
Codec ID                       : 55
Codec ID/Hint                  : MP3
Duration                       : 2h 14mn
Bit rate mode                  : Constant
Bit rate                       : 80.0 Kbps
Channel count                  : 2 channels
Sampling rate                  : 32.0 KHz
Compression mode               : Lossy
Stream size                    : 77.2 MiB (11%)
Alignment                      : Aligned on interleaves
Interleave, duration           : 167 ms (4.00 video frames)
Interleave, preload duration   : 216 ms
Title                          : grand
Writing library                : LAME3.99r
Encoding settings              : -m j -V 4 -q 2 -lowpass 13.5 -b 80


FileSize
Gravity (2013)[Castellano][DVDRip]/Gravity (2013)[Castellano][DVDRip].wmv700.75 Mb
Gravity (2013)[Castellano][DVDRip]/www.worldshouts.com.jpg166.38 Kb
Gravity (2013)[Castellano][DVDRip]/Gravity (2013)[Castellano][DVDRip] .srt46.43 Kb
TrackerSeedsLeechsDownloaded
udp://tracker.openbittorrent.com:80/scrape020
udp://tracker.publicbt.com:80/scrape040
http://www.ccde.25u.com/t/scrape.php000

Report this torrent

We will carefully monitor this report and react whenever possible.
Thanks for helping us in filtering out bad content and improving TorrentReactor for every other visitor!
Please login or register to be able to report torrents.

Your comment

Please Login or register to be able to add comments.

All comments

No one has added a comment yet. Be the first one.

Related torrents

Gravity (2013)[Castellano][DVDRip], related to Gravity (2013)[Castellano][DVDRip]