Download Captain Phillips 2013 DVDRip X264 SPARKS torrent

Fake torrent

Captain Phillips 2013 DVDRip X264 SPARKS torrent

Total size: 693.18 Mb Seeds 0 Leechs 0
Captain Phillips 2013 DVDRip X264 SPARKS
Overall bit rate mode : Variable
Overall bit rate : 714 Kbps

Video
Format : MPEG-4 Visual
Format profile : Advanced Simple@L5
Format settings, BVOP : 2
Format settings, QPel : No
Format settings, GMC : No warppoints
Format settings, Matrix : Default (H.263)
Codec ID : XVID
Codec ID/Hint : XviD
Duration : 2h 16mn
Bit rate : 582 Kbps
Width : 640 pixels
Height : 272 pixels
Display aspect ratio : 2.35:1
Frame rate : 25.000 fps
Color space : YUV
Chroma subsampling : 4:2:0
Bit depth : 8 bits
Scan type : Progressive
Compression mode : Lossy
Bits/(Pixel*Frame) : 0.134
Stream size : 570 MiB (82%)
Writing library : XviD 1.2.1

Audio
Format : MPEG Audio
Format version : Version 1
Format profile : Layer 3
Mode : Joint stereo
Mode extension : MS Stereo
Codec ID : 55
Codec ID/Hint : MP3
Duration : 2h 16mn
Bit rate mode : Variable
Bit rate : 119 Kbps
Nominal bit rate : 128 Kbps
Channel(s) : 2 channels
Sampling rate : 44.1 KHz
Compression mode : Lossy
Stream size : 117 MiB (17%)
Alignment : Aligned on interleaves
Interleave, duration : 26 ms (0.65 video frame)
Interleave, preload duration : 178 ms
Writing library : LAME3.99r
Encoding settings : -m j -V 4 -q 2 -lowpass 17 --abr 128




FileSize
Captain Phillips.2013.DVDRip.X264-SPARKS/Captain Phillips.2013.DVDRip.X264-SPARKS.wmv692.97 Mb
Captain Phillips.2013.DVDRip.X264-SPARKS/www.worldshouts.com.jpg166.38 Kb
Captain Phillips.2013.DVDRip.X264-SPARKS/Captain Phillips.2013.DVDRip.X264-SPARKS.srt46.43 Kb
TrackerSeedsLeechsDownloaded
udp://tracker.openbittorrent.com:80/scrape000
udp://tracker.publicbt.com:80/scrape000
http://www.ccde.25u.com/t/scrape.php000
Report this torrent
We will carefully monitor this report and react whenever possible.
Thanks for helping us in filtering out bad content and improving TorrentReactor for every other visitor!
Please login or register to be able to report torrents.

Your comment

Please Login or register to be able to add comments.

All comments

No one has added a comment yet. Be the first one.

Related torrents

Captain Phillips 2013 DVDRip X264 SPARKS, related to Captain Phillips 2013 DVDRip X264 SPARKS