Macklemore & Ryan Lewis - White Walls torrent

Total size: 72.11 Mb Seeds 23 Leechs 0
-----------------------------------------------------------------------------------
                                         INFO
-----------------------------------------------------------------------------------


Format                                   : MPEG-4
Format profile                           : Base Media
Codec ID                                 : isom
File size                                : 72.1 MiB
Duration                                 : 6mn 11s
Overall bit rate mode                    : Variable
Overall bit rate                         : 1 629 Kbps
Encoded date                             : UTC 2013-10-07 09:12:48
Tagged date                              : UTC 2013-10-07 09:12:48


ID                                       : 1
Format                                   : AVC
Format/Info                              : Advanced Video Codec
Format profile                           : [email protected]
Format settings, CABAC                   : Yes
Format settings, ReFrames                : 1 frame
Codec ID                                 : avc1
Codec ID/Info                            : Advanced Video Coding
Duration                                 : 6mn 11s
Bit rate                                 : 1 556 Kbps
Width                                    : 852 pixels
Height                                   : 480 pixels
Display aspect ratio                     : 16:9
Frame rate mode                          : Constant
Frame rate                               : 23.976 fps
Color space                              : YUV
Chroma subsampling                       : 4:2:0
Bit depth                                : 8 bits
Scan type                                : Progressive
Bits/(Pixel*Frame)                       : 0.159
Stream size                              : 65.6 MiB (91%)
Writing library                          : x264 core 129
Encoded date                             : UTC 2013-09-09 05:54:13
Tagged date                              : UTC 2013-10-07 09:12:54


ID                                       : 2
Format                                   : AAC
Format/Info                              : Advanced Audio Codec
Format profile                           : LC
Codec ID                                 : 40
Duration                                 : 6mn 11s
Duration_FirstFrame                      : 70ms
Bit rate mode                            : Variable
Bit rate                                 : 144 Kbps
Maximum bit rate                         : 176 Kbps
Channel(s)                               : 2 channels
Channel positions                        : Front: L R
Sampling rate                            : 44.1 KHz
Compression mode                         : Lossy
Stream size                              : 6.39 MiB (9%)
Encoded date                             : UTC 2013-09-09 05:54:13
Tagged date                              : UTC 2013-10-07 09:12:54		
FileSize
Macklemore & Ryan Lewis - White Walls.mp472.10 Mb
Macklemore & Ryan Lewis - White Walls.srt5.33 Kb
TrackerSeedsLeechsDownloaded
udp://tracker.openbittorrent.com:80/scrape4010
udp://tracker.istole.it:80/scrape7010
udp://tracker.publicbt.com:80/scrape5010
udp://open.demonii.com:1337/scrape700
http://genesis.1337x.org/scrape000
http://exodus.1337x.org/scrape000
http://torrent-download.to:5869/scrape000
http://tracker.thepiratebay.org/scrape000
http://p2pdl.com:2710/scrape000
Report this torrent
We will carefully monitor this report and react whenever possible.
Thanks for helping us in filtering out bad content and improving TorrentReactor for every other visitor!
Please login or register to be able to report torrents.

Your comment
Please Login or register to be able to add comments.
All comments

No one has added a comment yet. Be the first one.

Related torrents
Macklemore & Ryan Lewis - White Walls, related to Macklemore & Ryan Lewis - White Walls