Download Cloudy with a Chance of Meatballs 2.2013.DVDRip.XviD-eXceSs torrent

Fake torrent

Cloudy with a Chance of Meatballs 2.2013.DVDRip.XviD-eXceSs torrent

Total size: 677.61 Mb Seeds 5 Leechs 1
Cloudy with a Chance of Meatballs 2.2013.DVDRip.XviD-eXceSs
Video
ID                                       : 0
Format                                   : MPEG-4 Visual
Format profile                           : Advanced Simple@L5
Format settings, BVOP                    : 1
Format settings, QPel                    : No
Format settings, GMC                     : No warppoints
Format settings, Matrix                  : Custom
Codec ID                                 : XVID
Codec ID/Hint                            : XviD
Duration                                 : 2h 11mn
Bit rate                                 : 1 389 Kbps
Width                                    : 720 pixels
Height                                   : 400 pixels
Display aspect ratio                     : 16:9
Frame rate                               : 23.976 fps
Color space                              : YUV
Chroma subsampling                       : 4:2:0
Bit depth                                : 8 bits
Scan type                                : Progressive
Compression mode                         : Lossy
Bits/(Pixel*Frame)                       : 0.201
Stream size                              : 1.27 GiB (81%)
Writing library                          : XviD 1.2.1 (UTC 2008-12-04)

Audio
ID                                       : 1
Format                                   : AC-3
Format/Info                              : Audio Coding 3
Mode extension                           : CM (complete main)
Format settings, Endianness              : Big
Codec ID                                 : 2000
Duration                                 : 2h 11mn
Bit rate mode                            : Constant
Bit rate                                 : 320 Kbps
Channel(s)                               : 6 channels
Channel positions                        : Front: L C R, Side: L R, LFE
Sampling rate                            : 48.0 KHz
Bit depth                                : 16 bits
Compression mode                         : Lossy
Stream size                              : 300 MiB (19%)
Alignment                                : Aligned on interleaves
Interleave, duration                     : 64 ms (1.53 video frames)
Interleave, preload duration             : 192 ms

FileSize
Cloudy with a Chance of Meatballs 2.2013.DVDRip.XviD-eXceSs/Cloudy with a Chance of Meatballs 2.2013.DVDRip.XviD-eXceSs.wmv677.40 Mb
Cloudy with a Chance of Meatballs 2.2013.DVDRip.XviD-eXceSs/www.worldshouts.com.jpg166.38 Kb
Cloudy with a Chance of Meatballs 2.2013.DVDRip.XviD-eXceSs/Cloudy with a Chance of Meatballs 2.2013.DVDRip.XviD-eXceSs.srt46.43 Kb
TrackerSeedsLeechsDownloaded
udp://tracker.openbittorrent.com:80/scrape2110
udp://tracker.publicbt.com:80/scrape3010
http://www.ccde.25u.com/t/scrape.php000
Report this torrent
We will carefully monitor this report and react whenever possible.
Thanks for helping us in filtering out bad content and improving TorrentReactor for every other visitor!
Please login or register to be able to report torrents.

Your comment
Please Login or register to be able to add comments.
All comments

No one has added a comment yet. Be the first one.

Related torrents
Cloudy with a Chance of Meatballs 2.2013.DVDRip.XviD-eXceSs, related to Cloudy with a Chance of Meatballs 2.2013.DVDRip.XviD-eXceSs