Download Elysium 2013 720p Webrip x264 AC3 UNiQUE torrent

Elysium 2013 720p Webrip x264 AC3 UNiQUE torrent

Total size: 3.00 Gb Seeds 7 Leechs 0
							Elysium 2013 720p Webrip x264 AC3 UNiQUE
Source Used Elysium.2013.720p.x264 - Thankshttp://www.imdb.com/title/tt1535108/
HAS KOREAN HARDCODE!!!!
General
Format : Matroska
Format version : Version 2
File size : 3.00 GiB
Duration : 1h 49mn
Overall bit rate mode : Variable
Overall bit rate : 3 920 Kbps
Encoded date : UTC 2013-10-05 09:33:57
Writing application : mkvmerge v6.4.1 ('Omega Point' built on Sep 16 2013 22:05:10
Writing library : libebml v1.3.0 + libmatroska v1.4.1
Video
ID : 1
Format : AVC
Format/Info : Advanced Video Codec
Format profile : High@L4.1
Format settings, CABAC : Yes
Format settings, ReFrames : 3 frames
Codec ID : V_MPEG4/ISO/AVC
Duration : 1h 49mn
Bit rate mode : Variable
Bit rate : 3 534 Kbps
Maximum bit rate : 40.0 Mbps
Width : 1 280 pixels
Height : 720 pixels
Display aspect ratio : 16:9
Frame rate : 23.529 fps
Color space : YUV
Chroma subsampling : 4:2:0
Bit depth : 8 bits
Scan type : Progressive
Bits/(Pixel*Frame) : 0.163
Stream size : 2.65 GiB (88%)
Writing library : x264 core 138 r2358 9e941d1
Default : Yes
Forced : No
Audio
ID : 2
Format : AC-3
Format/Info : Audio Coding 3
Mode extension : CM (complete main)
Format settings, Endianness : Big
Codec ID : A_AC3
Duration : 1h 49mn
Bit rate mode : Constant
Bit rate : 384 Kbps
Channel(s) : 2 channels
Channel positions : Front: L R
Sampling rate : 48.0 KHz
Bit depth : 16 bits
Compression mode : Lossy
Stream size : 301 MiB (10%)
Language : English
Default : Yes
Forced : No
						
FileSize
Elysium 2013 720p Webrip x264 AC3 UNiQUE/Elysium 2013 720p Webrip x264 AC3 UNiQUE.nfo3.80 Kb
Elysium 2013 720p Webrip x264 AC3 UNiQUE/Elysium 2013 720p Webrip x264 AC3 UNiQUE.mkv3.00 Gb
TrackerSeedsLeechsDownloaded
udp://tracker.publicbt.com:80/scrape000
udp://tracker.openbittorrent.com:80/scrape000
udp://tracker.istole.it:80/scrape4010
udp://open.demonii.com:1337/scrape30739
http://tracker.torrentfrancais.com/scrape000
Report this torrent
We will carefully monitor this report and react whenever possible.
Thanks for helping us in filtering out bad content and improving TorrentReactor for every other visitor!
Please login or register to be able to report torrents.

Your comment
Please Login or register to be able to add comments.
All comments

No one has added a comment yet. Be the first one.

Related torrents
Elysium 2013 720p Webrip x264 AC3 UNiQUE, related to Elysium 2013 720p Webrip x264 AC3 UNiQUE