Download Riddick 2013 DVDrip torrent

Riddick 2013 DVDrip torrent

Total size: 776.01 Mb Seeds 0 Leechs 0
Format                           : AVI
Format/Info                      : Audio Video Interleave
Format profile                   : OpenDML
Overall bit rate                 : 1 800 Kbps
Writing application              : VirtualDubMod 1.5.10.2 (build 2542/release)
Writing library                  : VirtualDubMod build 2542/release

Video

Format                           : MPEG-4 Visual
Format settings, BVOP            : Yes
Format settings, QPel            : No
Format settings, Matrix          : Default (MPEG)
Codec ID                         : x264
Codec ID/Hint                    : x264
Bit rate                         : 1 411 Kbps
Width                            : 1280 pixels
Height                           : 720 pixels
Display aspect ratio             : 16:9
Frame rate                       : 29.97 fps
Resolution                       : 24 bits
Colorimetry                      : 4:2:0
Scan type                        : Progressive
Bits/(Pixel*Frame)               : 0.338
Stream size                      : 1.03 GiB (78%)

Audio

Format                           : AC-3
Format/Info                      : Audio Coding 3
Codec ID                         : 2000
Bit rate mode                    : Constant
Bit rate                         : 384 Kbps
Channel(s)                       : 6 channels
Channel positions                : Front: L C R, Surround: L R, LFE
Sampling rate                    : 48.0 KHz
Stream size                      : 287 MiB (21%)
Alignment                        : Aligned on interleaves
Interleave, duration             : 64 ms (1.53 video frames)
Interleave, preload duration     : 192 ms
FileSize
Riddick.2013.DVDrip/Torrent Downloaded From downloadhindimovies.in.txt1.69 Kb
Riddick.2013.DVDrip/Torrent downloaded from h33t.com.txt1.69 Kb
Riddick.2013.DVDrip/Dmt Nfo.txt1.69 Kb
Riddick.2013.DVDrip/Riddick.2013.DVDrip.nfo1.71 Kb
Riddick.2013.DVDrip/Riddick.2013.DVDrip.avi10.00 Mb
Riddick.2013.DVDrip/Riddick.2013.DVDrip.jpeg1.00 Mb
Riddick.2013.DVDrip/Riddick.2013.DVDrip/Riddick.2013.DVDrip.rar765.00 Mb
TrackerSeedsLeechsDownloaded
udp://tracker.publicbt.com:80/scrape000
udp://tracker.openbittorrent.com:80/scrape000
udp://tracker.istole.it:80/scrape000
http://www.h33t.com:3310/scrape000
http://retracker.hotplug.ru:2710/scrape000
http://nyaatorrents.info:3277/scrape000
http://denis.stalker.h3q.com:6969/scrape000
http://fr33dom.h33t.com:3310/scrape000
http://tracker.ccc.de/scrape000
http://open.tracker.thepiratebay.org/scrape000
http://scrape.torrentsmd.com:8080/scrape000
http://scrape.torrentsmd.com:8080/scrape.php000
http://www.itoma.info/tracker/scrape.php000
http://amplicate.appspot.com/scrape000
http://dotehwerk.appspot.com/scrape000
http://memtracker.appspot.com/scrape000
http://exodus.desync.com:6969/scrape000
http://btrs-atrack.appspot.com/scrape000
http://mcasttracker.appspot.com/scrape000
http://www.th0r1n.com/scrape000
http://tracker.publicbt.com/scrape000
http://tracker.prq.to/scrape000
http://secure.pow7.com/scrape000
http://torrent-downloads.to:5869/scrape000
http://tv.tracker.prq.to:80/scrape.php000
http://ipv4.tracker.harry.lu/scrape000
http://10.rarbg.com/scrape000
http://pow7.com/scrape000
http://10.rarbg.com:80/scrape000
http://tracker.token.ro:80/scrape000
http://tracker.prq.to:80/scrape.php000
http://tracker.publicbt.com:80/scrape000
http://tpb.tracker.prq.to:80/scrape.php000
http://red.tracker.prq.to:80/scrape000
http://tv.tracker.prq.to:80/scrape000
http://tbp.tracker.prq.to:80/scrape000
http://tracker.coppersurfer.tk:6969/scrape000
http://tracker.torrentbay.to:6969/scrape000
http://cpleft.com:2710/scrape000
http://scrape.xxx-tracker.com:2710/scrape000
http://tracker.novalayer.org:6969/scrape000
http://bt.home-ix.ru/scrape000
http://ix3.rutracker.net/scrape000
http://tracker.blazing.de:6969/scrape000
http://bt.firebit.org:2710/scrape000
http://gdbt.3322.org:6969/scrape000
http://sombarato.org:6969/scrape000
Report this torrent
We will carefully monitor this report and react whenever possible.
Thanks for helping us in filtering out bad content and improving TorrentReactor for every other visitor!
Please login or register to be able to report torrents.

Your comment

Please Login or register to be able to add comments.

All comments

No one has added a comment yet. Be the first one.

Related torrents

Riddick 2013 DVDrip, related to Riddick 2013 DVDrip