English

Britney Spears - Work Bitch 720p x264 AAC E-Subs [GWC].mp4

Total size: 52.68 Mb Seeds 71 Leechs 1
Britney Spears - Work Bitch 720p x264 AAC E-Subs .mp4
Hot body? Check.
Lamborghini? Check.
Sippin’ martinis and lookin’ hot in bikinis?
Check and check.
Britney’s back, and she’s here to work, bitch.
She’s even brought some whips, gags, and sharks to the party.
The video shows Spears and her famed dance moves,
breaking it down in a bikini in various locations including a desert, a pool, and dimly lit club
THUMBNAIL IMAGE :
FOLLOW ON FACEBOOK :
MEDIA INFO :
General 
Format : MPEG-4 
Format profile : Base Media 
Codec ID : isom 
File size : 52.7 MiB 
Duration : 3mn 54s 
Overall bit rate mode : Variable 
Overall bit rate : 1 882 Kbps 
Video 
ID : 1 
Format : AVC 
Format profile : 
/*  */

Format settings, CABAC : Yes 
Format settings, ReFrames : 3 frames 
Duration : 3mn 54s 
Source duration : 3mn 54s 
Bit rate : 1 787 Kbps 
Maximum bit rate : 5 085 Kbps 
Width : 1 280 pixels 
Height : 720 pixels 
Display aspect ratio : 16:9 
Frame rate mode : Variable 
Frame rate : 23.976 fps 
Stream size : 50.0 MiB (95%) 
Title : Britney Spears - Work Bitch 720p x264 AAC E-Subs  
Audio 
Format : AAC 
Format profile : LC 
Duration : 3mn 54s 
Bit rate mode : Variable 
Channel(s) : 2 channels 
Sampling rate : 48.0 KHz 
Stream size : 2.61 MiB (5%) 
Language : English 
Text 
Format : Timed Text 
Codec ID : tx3g 
Duration : 3mn 50s 
Bit rate mode : Variable 
Bit rate : 100 bps 
Stream size : 2.82 KiB (0%) 
Title : English Subtitle by  
Language : En
FileSize
Britney Spears - Work Bitch 720p x264 AAC E-Subs [GWC].mp452.68 Mb
TrackerSeedsLeechsDownloaded
udp://open.demonii.com:1337/scrape803662
udp://tracker.istole.it:80/scrape9010
udp://vip.tracker.prq.to:80/scrape6010
udp://10.rarbg.com/scrape6010
udp://tracker.publichd.eu/scrape5010
udp://9.rarbg.me:2710/scrape9047
udp://coppersurfer.tk:6969/scrape90362
http://tracker.yibis.com:6969/scrape000
http://tracker.torrentfrancais.com/scrape711524
http://94.228.192.98/scrape60212
http://121.14.98.151:9090/scrape60681
http://p2pdl.com:2710/scrape000

Report this torrent

We will carefully monitor this report and react whenever possible.
Thanks for helping us in filtering out bad content and improving TorrentReactor for every other visitor!
Please login or register to be able to report torrents.

Your comment

Please Login or register to be able to add comments.

All comments

No one has added a comment yet. Be the first one.

Related torrents

Britney Spears - Work Bitch 720p x264 AAC E-Subs [GWC].mp4, related to Britney Spears - Work Bitch 720p x264 AAC E-Subs [GWC].mp4