English

Depois da Terra [720p] The Pirate Filmes

Total size: 846.95 Mb Seeds 206 Leechs 4
Sinopse: 

Há 1000 anos, um cataclismo tornou a Terra um lugar hostil e forçou os humanos a se abrigarem no planeta Nova Prime, morando em naves espaciais. Depois de uma missão, o general Cypher Raige (Will Smith) retorna à sua família e ao filho de treze anos de idade (Jaden Smith). Mas pouco tempo após seu retorno, uma chuva de asteroides faz com que a nave onde moram caia na Terra. Com o pai correndo risco de morte, o jovem adolescente deverá aprender sozinho a domar este planeta, encontrando água, comida e cuidando de seu pai.

TITULO ORIGINAL --- AFTER EARTH
LANÇAMENTO -------- 2013
GENERO ------------ FICÇÃO, AVENTURA
FORMATO ----------- MP4
IDIOMA ------------ PORTUGUES BR, INGLES

Dados:

Format                                   : MPEG-4
Format profile                           : Base Media
Codec ID                                 : isom
File size                                : 847 MiB
Duration                                 : 1h 40mn
Overall bit rate mode                    : Variable
Overall bit rate                         : 1 183 Kbps

Video
ID                                       : 1
Format                                   : AVC
Format/Info                              : Advanced Video Codec
Format profile                           : High@L4.1
Format settings, CABAC                   : Yes
Format settings, ReFrames                : 5 frames
Codec ID                                 : avc1
Codec ID/Info                            : Advanced Video Coding
Duration                                 : 1h 40mn
Bit rate                                 : 956 Kbps
Maximum bit rate                         : 7 103 Kbps
Width                                    : 1 280 pixels
Height                                   : 536 pixels
Display aspect ratio                     : 2.40:1
Frame rate mode                          : Constant
Frame rate                               : 23.976 fps
Color space                              : YUV
Chroma subsampling                       : 4:2:0
Bit depth                                : 8 bits
Scan type                                : Progressive

Audio #1
ID                                       : 2
Format                                   : MPEG Audio
Format version                           : Version 1
Format profile                           : Layer 3
Mode                                     : Joint stereo
Mode extension                           : MS Stereo
Codec ID                                 : 6B
Duration                                 : 1h 40mn
Bit rate mode                            : Constant
Bit rate                                 : 128 Kbps
Maximum bit rate                         : 134 Kbps
Channel count                            : 2 channels
Sampling rate                            : 44.1 KHz
Compression mode                         : Lossy
Stream size                              : 91.6 MiB (11%)
Audio #2
ID                                       : 3
Format                                   : AAC
Format/Info                              : Advanced Audio Codec
Format profile                           : LC
Codec ID                                 : 40
Duration                                 : 1h 40mn
Bit rate mode                            : Variable
Bit rate                                 : 93.7 Kbps
Maximum bit rate                         : 103 Kbps
Channel count                            : 2 channels
Channel positions                        : Front: L R
Sampling rate                            : 48.0 KHz
Compression mode                         : Lossy
Stream size                              : 67.1 MiB (8%)
Language                                 : English
Encoded date                             : UTC 2013-09-30 19:02:31
Tagged date                              : UTC 2013-09-30 19:02:34

Text
ID                                       : 4
Format                                   : Timed Text
Codec ID                                 : tx3g
Duration                                 : 1h 32mn
Bit rate mode                            : Variable
Bit rate                                 : 35 bps
Stream size                              : 23.5 KiB (0%)
		
FileSize
Depois da Terra [720p] The Pirate Filmes/Depois da Terra [720p] - The Pirate Filmes.mp4846.73 Mb
Depois da Terra [720p] The Pirate Filmes/Capa Bluray.jpg133.28 Kb
Depois da Terra [720p] The Pirate Filmes/pirate.jpg43.85 Kb
Depois da Terra [720p] The Pirate Filmes/Depois da Terra Legenda.srt42.20 Kb
Depois da Terra [720p] The Pirate Filmes/LEIA - Informações.txt566.00 b
TrackerSeedsLeechsDownloaded
udp://tracker.openbittorrent.com:80/scrape98310
udp://tracker.publicbt.com:80/scrape108110
http://tracker.thepiratebay.org/scrape000

Report this torrent

We will carefully monitor this report and react whenever possible.
Thanks for helping us in filtering out bad content and improving TorrentReactor for every other visitor!
Please login or register to be able to report torrents.

Your comment

Please Login or register to be able to add comments.

All comments

No one has added a comment yet. Be the first one.

Related torrents

Depois da Terra [720p] The Pirate Filmes, related to Depois da Terra [720p] The Pirate Filmes