Download The Script Hall of Fame ft will i am 720p SPIDAROT SHARE MP4 torrent

The Script Hall of Fame ft will i am 720p SPIDAROT SHARE MP4 torrent

Total size: 57.51 Mb Seeds 30 Leechs 0
							Hall of Fame -The Script ft. will.i.am"Hall of Fame" is a song by Irish piano rock band The Script. It is the lead single from their third studio album #3. The track features The Black Eyed Peas hip-hop artist will.i.am. The track was given its first radio play on Capital on 23 July 2012.Written and co-produced by the band, the song is about following on your dreams and making an impact on the world.[citation needed] The song was used to advertise the return of serial dramas All My Children and One Life to Live. The song was covered on the Glee episode "All or Nothing". "Masterchef Australia: The Professionals" used it as the theme song in the opening credits.
A lyric video for the track was released on 24 July 2012. The music video was released on 19 August through the band’s official site. The accompanying music video sees the stars performing the track in a deserted warehouse, while other scenes feature an aspiring boxer and deaf ballet dancer in training. Hall of Fame ft. will.i.am.[720p]-=SPIDAROT SHARE=-.MP4
Format : MPEG-4
Format profile : Base Media / Version 2
Codec ID : mp42
File size : 57.5 MiB
Duration : 3mn 52s
Overall bit rate mode : Variable
Overall bit rate : 2 071 Kbps
Encoded date : UTC 2012-08-21 01:03:53
Tagged date : UTC 2012-08-21 01:03:53
gsst : 0
gstd : 233105
gssd : BADC23422HH1346121225783367
Video
ID : 1
Format : AVC
Format/Info : Advanced Video Codec
Format profile : High@L3.1
Format settings, CABAC : Yes
Format settings, ReFrames : 1 frame
Codec ID : avc1
Codec ID/Info : Advanced Video Coding
Duration : 3mn 52s
Bit rate : 1 876 Kbps
Maximum bit rate : 3 790 Kbps
Width : 1 280 pixels
Height : 720 pixels
Display aspect ratio : 16:9
Frame rate mode : Constant
Frame rate : 23.976 fps
Color space : YUV
Chroma subsampling : 4:2:0
Bit depth : 8 bits
Scan type : Progressive
Bits/(Pixel*Frame) : 0.085
Stream size : 52.1 MiB (91%)
Tagged date : UTC 2012-08-21 01:03:54
Audio
ID : 2
Format : AAC
Format/Info : Advanced Audio Codec
Format profile : LC
Codec ID : 40
Duration : 3mn 52s
Bit rate mode : Variable
Bit rate : 192 Kbps
Maximum bit rate : 202 Kbps
Channel(s) : 2 channels
Channel positions : Front: L R
Sampling rate : 44.1 KHz
Compression mode : Lossy
Stream size : 5.33 MiB (9%)
Title : IsoMedia File Produced by Google, 5-11-2011
Encoded date : UTC 2012-08-21 01:03:54
Tagged date : UTC 2012-08-21 01:03:54PLEASE SEED AND COMMENT
						
FileSize
The Script - Hall of Fame ft. will.i.am.[720p]-=SPIDAROT SHARE=-.MP457.51 Mb
TrackerSeedsLeechsDownloaded
udp://tracker.publicbt.com:80/scrape6010
udp://tracker.openbittorrent.com:80/scrape5010
udp://tracker.istole.it:80/scrape11010
udp://open.demonii.com:1337/scrape80289
Report this torrent
We will carefully monitor this report and react whenever possible.
Thanks for helping us in filtering out bad content and improving TorrentReactor for every other visitor!
Please login or register to be able to report torrents.

Your comment

Please Login or register to be able to add comments.

All comments

No one has added a comment yet. Be the first one.

Related torrents

The Script Hall of Fame ft will i am 720p SPIDAROT SHARE MP4, related to The Script Hall of Fame ft will i am 720p SPIDAROT SHARE MP4