Viyah 70 KM (2013) - DVDSCR - 1CD - MCRip XVID - GOPI SAHI PDR torrent

Total size: 573.25 Mb Seeds 1 Leechs 4
							
Video
ID : 0
Format : AVC
Format/Info : Advanced Video Codec
Format profile : [email protected]
Format settings, CABAC : Yes
Format settings, ReFrames : 1 frame
Codec ID : H264
Duration : 2h 7mn
Bit rate : 551 Kbps
Width : 640 pixels
Height : 360 pixels
Display aspect ratio : 16:9
Frame rate : 25.000 fps
Color space : YUV
Chroma subsampling : 4:2:0
Bit depth : 8 bits
Scan type : Progressive
Bits/(Pixel*Frame) : 0.096
Stream size : 504 MiB (88%)
Audio
ID : 1
Format : MPEG Audio
Format version : Version 1
Format profile : Layer 2
Codec ID : 50
Duration : 2h 7mn
Bit rate mode : Constant
Bit rate : 64.0 
Channel(s) : 2 channels
Sampling rate : 44.1 KHz
Compression mode : Lossy
Stream size : 58.3 MiB (10%)
Alignment : Aligned on interleaves
Interleave, duration : 40 ms (1.01 video frame)
Interleave, preload duration : 52 ms
FileSize
Viyah 70 KM (2013) - DVDSCR - 1CD - MCRip XVID - GOPI SAHI PDR/Viyah 70 KM (2013) - DVDSCR - 1CD - MCRip - BY GOPI SAHI PDR.avi571.41 Mb
Viyah 70 KM (2013) - DVDSCR - 1CD - MCRip XVID - GOPI SAHI PDR/SCREN/vlcsnap-2013-09-22-22h50m32s166.png370.32 Kb
Viyah 70 KM (2013) - DVDSCR - 1CD - MCRip XVID - GOPI SAHI PDR/SCREN/vlcsnap-2013-09-22-22h50m25s98.png341.16 Kb
Viyah 70 KM (2013) - DVDSCR - 1CD - MCRip XVID - GOPI SAHI PDR/SCREN/vlcsnap-2013-09-22-22h50m29s142.png333.17 Kb
Viyah 70 KM (2013) - DVDSCR - 1CD - MCRip XVID - GOPI SAHI PDR/SCREN/vlcsnap-2013-09-22-22h50m35s202.png325.73 Kb
Viyah 70 KM (2013) - DVDSCR - 1CD - MCRip XVID - GOPI SAHI PDR/SCREN/vlcsnap-2013-09-22-22h50m17s12.png219.33 Kb
Viyah 70 KM (2013) - DVDSCR - 1CD - MCRip XVID - GOPI SAHI PDR/Viyah 70KM poster cover gopi sahi pdr.jpg159.58 Kb
Viyah 70 KM (2013) - DVDSCR - 1CD - MCRip XVID - GOPI SAHI PDR/SCREN/Viyah 70 KM (2013) - DVDSCR - 1CD - MCRip - BY GOPI SAHI PDR.avi_thumbs_[2013.09.22_22.51.08].jpg137.66 Kb
Viyah 70 KM (2013) - DVDSCR - 1CD - MCRip XVID - GOPI SAHI PDR/Pendu Desi Releaser Note.txt610.00 b
Viyah 70 KM (2013) - DVDSCR - 1CD - MCRip XVID - GOPI SAHI PDR/Torrent Downloaded From ExtraTorrent.com.txt384.00 b
Viyah 70 KM (2013) - DVDSCR - 1CD - MCRip XVID - GOPI SAHI PDR/gopi sahi.txt42.00 b
TrackerSeedsLeechsDownloaded
udp://tracker.publicbt.com:80/scrape0110
udp://tracker.openbittorrent.com:80/scrape0110
udp://tracker.istole.it:80/scrape0110
udp://11.rarbg.com:80/scrape1110
http://scrape.torrentsmd.com:6969/scrape000
http://www.h33t.com:3310/scrape000
http://i.bandito.org/scrape000
http://newhorizons.twentyforty.me:2710/scrape000
http://tracker.blazing.de/scrape000
Report this torrent
We will carefully monitor this report and react whenever possible.
Thanks for helping us in filtering out bad content and improving TorrentReactor for every other visitor!
Please login or register to be able to report torrents.

Your comment
Please Login or register to be able to add comments.
All comments

No one has added a comment yet. Be the first one.

Related torrents
Viyah 70 KM (2013) - DVDSCR - 1CD - MCRip XVID - GOPI SAHI PDR, related to Viyah 70 KM (2013) - DVDSCR - 1CD - MCRip XVID - GOPI SAHI PDR