Download Phata Poster Nikla Hero (2013) - {Hindi Movies} - DvDSCR - x264 - 1CD - AC3 - Cool_Candy torrent

Phata Poster Nikla Hero (2013) - {Hindi Movies} - DvDSCR - x264 - 1CD - AC3 - Cool_Candy torrent

Total size: 506.95 Mb Seeds 0 Leechs 0
							Phata Poster Nikla Hero (2013) - {Hindi Movies} - DvDSCR - x264 - 1CD - AC3 - Cool_Candy 
General
Unique ID : 320406685824501189714370273582585605108 (0xF10C15437E7C6217EAA7F8C2DDC1EBF4)
Complete name : Phata Poster Nikla Hero (2013) - {Hindi Movies} - DvDSCR - x264 - 1CD - AC3 - Cool_Candy.mkv
Format : Matroska
Format version : Version 2
File size : 502 MiB
Duration : 2h 24mn
Overall bit rate : 487 Kbps
Writing application : Lavf53.6.0
Writing library : Lavf53.6.0
Video
ID : 1
Format : AVC
Format/Info : Advanced Video Codec
Codec ID : V_MPEG4/ISO/AVC
Duration : 2h 24mn
Bit rate : 381 Kbps
Width : 624 pixels
Height : 272 pixels
Display aspect ratio : 2.25:1
Frame rate mode : Constant
Frame rate : 23.976 fps
Bits/(Pixel*Frame) : 0.094
Stream size : 393 MiB (78%)
Default : Yes
Forced : No
Audio
ID : 2
Format : AC-3
Format/Info : Audio Coding 3
Mode extension : CM (complete main)
Format settings, Endianness : Big
Codec ID : A_AC3
Duration : 2h 24mn
Bit rate mode : Constant
Bit rate : 96.0 Kbps
Channel(s) : 2 channels
Channel positions : Front: L R
Sampling rate : 48.0 KHz
Bit depth : 16 bits
Compression mode : Lossy
Stream size : 99.0 MiB (20%)
Default : Yes
Forced : NoCode:
SAMPLEhttp://www.MaxMirror.com/download/19UKANVW
FileSize
Phata Poster Nikla Hero (2013) - {Hindi Movies} - DvDSCR - x264 - 1CD - AC3 - Cool_Candy/Phata Poster Nikla Hero (2013) - {Hindi Movies} - DvDSCR - x264 - 1CD - AC3 - Cool_Candy.mkv501.63 Mb
Phata Poster Nikla Hero (2013) - {Hindi Movies} - DvDSCR - x264 - 1CD - AC3 - Cool_Candy/shot0003.png604.62 Kb
Phata Poster Nikla Hero (2013) - {Hindi Movies} - DvDSCR - x264 - 1CD - AC3 - Cool_Candy/shot0004.png604.62 Kb
Phata Poster Nikla Hero (2013) - {Hindi Movies} - DvDSCR - x264 - 1CD - AC3 - Cool_Candy/shot0005.png604.62 Kb
Phata Poster Nikla Hero (2013) - {Hindi Movies} - DvDSCR - x264 - 1CD - AC3 - Cool_Candy/shot0002.png604.62 Kb
Phata Poster Nikla Hero (2013) - {Hindi Movies} - DvDSCR - x264 - 1CD - AC3 - Cool_Candy/shot0006.png604.62 Kb
Phata Poster Nikla Hero (2013) - {Hindi Movies} - DvDSCR - x264 - 1CD - AC3 - Cool_Candy/shot0007.png604.62 Kb
Phata Poster Nikla Hero (2013) - {Hindi Movies} - DvDSCR - x264 - 1CD - AC3 - Cool_Candy/shot0008.png604.62 Kb
Phata Poster Nikla Hero (2013) - {Hindi Movies} - DvDSCR - x264 - 1CD - AC3 - Cool_Candy/shot0009.png604.62 Kb
Phata Poster Nikla Hero (2013) - {Hindi Movies} - DvDSCR - x264 - 1CD - AC3 - Cool_Candy/shot0010.png604.62 Kb
Phata Poster Nikla Hero (2013) - {Hindi Movies} - DvDSCR - x264 - 1CD - AC3 - Cool_Candy/Torrent Downloaded From ExtraTorrent.com.txt353.00 b
TrackerSeedsLeechsDownloaded
udp://tracker.publicbt.com:80/scrape000
udp://tracker.openbittorrent.com:80/scrape000
udp://tracker.istole.it:80/scrape000
udp://open.demonii.com:1337/scrape000
udp://pow7.com:80/scrape000
udp://ipv4.tracker.harry.lu:80/scrape000
http://newhorizons.twentyforty.me:2710/scrape000
http://exodus.desync.com/scrape000
Report this torrent
We will carefully monitor this report and react whenever possible.
Thanks for helping us in filtering out bad content and improving TorrentReactor for every other visitor!
Please login or register to be able to report torrents.

Your comment
Please Login or register to be able to add comments.
All comments

No one has added a comment yet. Be the first one.

Related torrents
Phata Poster Nikla Hero (2013) - {Hindi Movies} - DvDSCR - x264 - 1CD - AC3 - Cool_Candy, related to Phata Poster Nikla Hero (2013) - {Hindi Movies} - DvDSCR - x264 - 1CD - AC3 - Cool_Candy