Grand Masti 2013 BRRip 720P UNiQUE
Suspicious
Needs verification

Grand Masti 2013 BRRip 720P UNiQUE

Total size: 673.84 Mb Seeds 0 Leechs 0
Grand Masti 2013 BRRip 720P UNiQUE
Movie............: Grand Masti 
Year.............: 2013
IMDB.............: http://www.imdb.com/title/tt2476154
Cast.............: Ritesh Deshmukh, Vivek Oberoi, Aftab Shivdasani
Source...........: DvDScr @ xRG [Line Audio]
Ripper...........: B0nD007
Rip Size.........: 902MB
Resolution.......: 672x288
Runtime..........: 2hr 13min
Codec ID.........: XviD 2 pass
Video Bitrate....: 945 Kbps
Frame Rate.......: 25.000FPS
Encoder used.....: MeGui
Audio Bitrate....: 192kbps
Audio Type.......: AC3 5.1 Channel(Front: L C R,Side: L R)
Sample...........: Yes
Subtiles.........: No
Ripper Note:- Best Print Ever Now. Also U Not Need To Wait For DVD9. Quality Is great with 5.1 Channel Line Audio.



Info:


Format version : Version 2
File size : 681 MiB
Duration : 2h 13mn
Overall bit rate mode : Constant
Overall bit rate : 713 Kbps
Encoded date : UTC 2013-09-15 07:33:17
Writing application : TMPGEnc Video Mastering Works 5 Version. 5.0.6.38
Writing library : TMPGEnc Video Mastering Works 5 Version. 5.0.6.38

Video
ID : 2
Format : AVC
Format/Info : Advanced Video Codec
Format profile : High@L2.1
Format settings, CABAC : Yes
Format settings, ReFrames : 3 frames
Codec ID : V_MPEG4/ISO/AVC
Duration : 2h 13mn
Bit rate mode : Constant
Bit rate : 315 Kbps
Nominal bit rate : 346 Kbps / 346 Kbps
Width : 572 pixels
Height : 236 pixels
Display aspect ratio : 2.936
Original display aspect ratio : 2.938
Frame rate mode : Constant
Frame rate : 23.976 fps
Standard : NTSC
Color space : YUV
Chroma subsampling : 4:2:0
Bit depth : 8 bits
Scan type : Progressive
Bits/(Pixel*Frame) : 0.097
Stream size : 301 MiB (44%)
Writing library : x264 core 114
Default : Yes
Forced : No
Color primaries : BT.601 NTSC
Transfer characteristics : BT.601
Matrix coefficients : BT.601

Audio
ID : 1
Format : AC-3
Format/Info : Audio Coding 3
Mode extension : CM (complete main)
Format settings, Endianness : Big
Codec ID : A_AC3
Duration : 2h 13mn
Bit rate mode : Constant
Bit rate : 384 Kbps
Channel(s) : 6 channels
Channel positions : Front: L C R, Side: L R, LFE
Sampling rate : 48.0 KHz
Bit depth : 16 bits
Compression mode : Lossy
Stream size : 366 MiB (54%)
Default : Yes
Forced : No

Info:


Format version : Version 2
File size : 681 MiB
Duration : 2h 13mn
Overall bit rate mode : Constant
Overall bit rate : 713 Kbps
Encoded date : UTC 2013-09-15 07:33:17
Writing application : TMPGEnc Video Mastering Works 5 Version. 5.0.6.38
Writing library : TMPGEnc Video Mastering Works 5 Version. 5.0.6.38

Video
ID : 2
Format : AVC
Format/Info : Advanced Video Codec
Format profile : High@L2.1
Format settings, CABAC : Yes
Format settings, ReFrames : 3 frames
Codec ID : V_MPEG4/ISO/AVC
Duration : 2h 13mn
Bit rate mode : Constant
Bit rate : 315 Kbps
Nominal bit rate : 346 Kbps / 346 Kbps
Width : 572 pixels
Height : 236 pixels
Display aspect ratio : 2.936
Original display aspect ratio : 2.938
Frame rate mode : Constant
Frame rate : 23.976 fps
Standard : NTSC
Color space : YUV
Chroma subsampling : 4:2:0
Bit depth : 8 bits
Scan type : Progressive
Bits/(Pixel*Frame) : 0.097
Stream size : 301 MiB (44%)
Writing library : x264 core 114
Default : Yes
Forced : No
Color primaries : BT.601 NTSC
Transfer characteristics : BT.601
Matrix coefficients : BT.601

Audio
ID : 1
Format : AC-3
Format/Info : Audio Coding 3
Mode extension : CM (complete main)
Format settings, Endianness : Big
Codec ID : A_AC3
Duration : 2h 13mn
Bit rate mode : Constant
Bit rate : 384 Kbps
Channel(s) : 6 channels
Channel positions : Front: L C R, Side: L R, LFE
Sampling rate : 48.0 KHz
Bit depth : 16 bits
Compression mode : Lossy
Stream size : 366 MiB (54%)
Default : Yes
Forced : No


Screens: 
http://1337x.org/torrent/628088/Grand-Masti-2013-Hindi-DVDScr-XviD-Exclusive/


Screens: 
http://1337x.org/torrent/628088/Grand-Masti-2013-Hindi-DVDScr-XviD-Exclusive/

FileSize
Grand Masti 2013 .BRRip 720P UNiQUE/Grand Masti 2013 .BRRip 720P UNiQUE.avi673.84 Mb
TrackerSeedsLeechsDownloaded
udp://tracker.publicbt.com:80/scrape000
udp://tracker.openbittorrent.com:80/scrape000
udp://tracker.istole.it:80/scrape000
udp://9.rarbg.com:2710/scrape000
http://fr33dom.h33t.eu:3310/scrape000
http://tracker.dler.org:6969/scrape000
Report this torrent
We will carefully monitor this report and react whenever possible.
Thanks for helping us in filtering out bad content and improving TorrentReactor for every other visitor!
Please login or register to be able to report torrents.

Your comment

Please Login or register to be able to add comments.

All comments

No one has added a comment yet. Be the first one.

Related movies

Search for full movies Grand Masti 2013 BRRip 720P UNiQUE, related to Grand Masti 2013 BRRip 720P UNiQUE