Download Grand Masti 2 2013 Hindi Movies HDDVDScrRip X264 New Source +Sample ~ ☻rDX☻ torrent

Grand Masti 2 2013 Hindi Movies HDDVDScrRip X264 New Source +Sample ~ ☻rDX☻ torrent

Total size: 701.43 Mb Seeds 2 Leechs 0
							
Grand Masti 2 2013 Hindi Movies HDDVDScrRip X264 New Source +Sample ~ ☻rDX☻Please check SCREEN SHOTS first :http://myimghosting.serveftp.com/13/GrandMastids.htmlhttp://myimghost.cwahi.net/GrandMastids.htmlAll rDX torrents are Seeding From the 1Gbps Seedbox 24X7
Format : Matroska
Format version : Version 1
File size : 687 MiB
Duration : 2h 11mn
Overall bit rate : 732 Kbps
Encoded date : UTC 2013-09-17 04:37:54
Writing application : mkvmerge v2.5.3 ('Boogie') built on Mar 7 2009 15:00:41
Writing library : libebml v0.7.7 + libmatroska v0.8.1
Video
ID : 1
Format : AVC
Format/Info : Advanced Video Codec
Format profile : [email protected]
Format settings, CABAC : Yes
Format settings, ReFrames : 4 frames
Codec ID : V_MPEG4/ISO/AVC
Duration : 2h 11mn
Bit rate : 601 Kbps
Width : 720 pixels
Height : 320 pixels
Display aspect ratio : 2.25:1
Frame rate mode : Constant
Frame rate : 23.976 fps
Color space : YUV
Chroma subsampling : 4:2:0
Bit depth : 8 bits
Scan type : Progressive
Bits/(Pixel*Frame) : 0.109
Stream size : 553 MiB (81%)
Title : www.desidhamal.com
Writing library : x264 core 133 r2334 a3ac64b
Default : Yes
Forced : No
Audio
ID : 2
Format : MPEG Audio
Format version : Version 1
Format profile : Layer 3
Mode : Joint stereo
Mode extension : MS Stereo
Codec ID : A_MPEG/L3
Codec ID/Hint : MP3
Duration : 2h 13mn
Bit rate mode : Constant
Bit rate : 128 Kbps
Channel(s) : 2 channels
Sampling rate : 48.0 KHz
Compression mode : Lossy
Stream size : 122 MiB (18%)
Title : www.desidhamal.com
Writing library : LAME3.99r
Encoding settings : -m j -V 4 -q 2 -lowpass 17 -b 128
Language : Hindi
Default : Yes
Forced : No
						
FileSize
Grand Masti 2 2013 Hindi Movies HDDVDScrRip X264 New Source +Sample ~ ☻rDX☻/Grand Masti 2 2013 Hindi Movies HDDVDScrRip X264 New Source ~ ☻rDX☻.mkv687.22 Mb
Grand Masti 2 2013 Hindi Movies HDDVDScrRip X264 New Source +Sample ~ ☻rDX☻/Sample ~ Grand Masti 2 2013 Hindi Movies HDDVDScrRip X264 New Source ~ ☻rDX☻.mkv14.21 Mb
TrackerSeedsLeechsDownloaded
udp://tracker.publicbt.com:80/scrape1010
udp://tracker.openbittorrent.com:80/scrape1010
udp://coppersurfer.tk:6969/scrape007
udp://9.rarbg.com:2710/scrape003
http://exodus.desync.com/scrape000
Report this torrent
We will carefully monitor this report and react whenever possible.
Thanks for helping us in filtering out bad content and improving TorrentReactor for every other visitor!
Please login or register to be able to report torrents.

Your comment
Please Login or register to be able to add comments.
All comments

No one has added a comment yet. Be the first one.

Related torrents
Grand Masti 2 2013 Hindi Movies HDDVDScrRip X264 New Source +Sample ~ ☻rDX☻, related to Grand Masti 2 2013 Hindi Movies HDDVDScrRip X264 New Source +Sample ~ ☻rDX☻