Miley Cyrus Wrecking Ball

Miley Cyrus Wrecking Ball

Total size: 29.18 Mb Seeds 28 Leechs 0
							

Format : MPEG-4
Format profile : Base Media
Codec ID : isom
File size : 29.2 MiB
Duration : 3mn 41s
Overall bit rate mode : Variable
Overall bit rate : 1 106 Kbps
Encoded date : UTC 2013-09-09 05:30:40
Tagged date : UTC 2013-09-09 05:30:40
Writing application : Lavf54.63.104

ID : 1
Format : AVC
Format/Info : Advanced Video Codec
Format profile : Main@L3.0
Format settings, CABAC : Yes
Format settings, ReFrames : 1 frame
Codec ID : avc1
Codec ID/Info : Advanced Video Coding
Duration : 3mn 41s
Bit rate : 927 Kbps
Width : 852 pixels
Height : 480 pixels
Display aspect ratio : 16:9
Frame rate mode : Constant
Frame rate : 23.976 fps
Color space : YUV
Chroma subsampling : 4:2:0
Bit depth : 8 bits
Scan type : Progressive
Bits/(Pixel*Frame) : 0.095
Stream size : 25.1 MiB (86%)
Writing library : x264 core 129
Encoded date : UTC 2013-09-09 05:30:40
Tagged date : UTC 2013-09-09 05:30:40

ID : 2
Format : AAC
Format/Info : Advanced Audio Codec
Format profile : LC
Codec ID : 40
Duration : 3mn 41s
Duration_FirstFrame : 70ms
Bit rate mode : Variable
Bit rate : 151 Kbps
Maximum bit rate : 176 Kbps
Channel(s) : 2 channels
Channel positions : Front: L R
Sampling rate : 44.1 KHz
Compression mode : Lossy
Stream size : 4.00 MiB (14%)
Encoded date : UTC 2013-09-09 05:30:40
Tagged date : UTC 2013-09-09 05:30:40
						
FileSize
Miley Cyrus - Wrecking Ball/Miley Cyrus - Wrecking Ball.mp429.17 Mb
Miley Cyrus - Wrecking Ball/Miley Cyrus - Wrecking Ball.srt3.23 Kb
TrackerSeedsLeechsDownloaded
udp://tracker.publicbt.com:80/scrape3010
udp://tracker.openbittorrent.com:80/scrape1010
udp://tracker.istole.it:80/scrape7010
udp://tracker.istole.it:6969/scrape7010
udp://open.demonii.com:1337/scrape1003857
http://genesis.1337x.org/scrape000
http://exodus.1337x.org/scrape000
Report this torrent
We will carefully monitor this report and react whenever possible.
Thanks for helping us in filtering out bad content and improving TorrentReactor for every other visitor!
Please login or register to be able to report torrents.

Your comment

Please Login or register to be able to add comments.

All comments

No one has added a comment yet. Be the first one.

Related music

Search for full music Miley Cyrus Wrecking Ball, related to Miley Cyrus Wrecking Ball