English

Verified torrent

The World's End 2013 WEBRiP XViD UNiQUE

Total size: 738.90 Mb Seeds 2 Leechs 1
							
he World's End 2013 WEBRiP XViD UNiQUE
Source Used SmY - Thanks
Format : AVI
Format/Info : Audio Video Interleave
File size : 735 MiB
Duration : 1h 44mn
Overall bit rate : 983 Kbps
Writing application : VirtualDubMod 1.5.10.2 (build 2540/release)
Writing library : VirtualDubMod build 2540/release
Video
ID : 0
Format : MPEG-4 Visual
Format profile : Advanced Simple@L5
Format settings, BVOP : 2
Format settings, QPel : No
Format settings, GMC : No warppoints
Format settings, Matrix : Default (H.263)
Muxing mode : Packed bitstream
Codec ID : XVID
Codec ID/Hint : XviD
Duration : 1h 44mn
Bit rate : 781 Kbps
Width : 720 pixels
Height : 304 pixels
Display aspect ratio : 2.35:1
Frame rate : 25.000 fps
Color space : YUV
Chroma subsampling : 4:2:0
Bit depth : 8 bits
Scan type : Progressive
Compression mode : Lossy
Bits/(Pixel*Frame) : 0.143
Stream size : 584 MiB (79%)
Writing library : XviD 64
Audio
ID : 1
Format : AC-3
Format/Info : Audio Coding 3
Mode extension : CM (complete main)
Format settings, Endianness : Big
Codec ID : 2000
Duration : 1h 44mn
Bit rate mode : Constant
Bit rate : 192 Kbps
Channel(s) : 2 channels
Channel positions : Front: L R
Sampling rate : 44.1 KHz
Bit depth : 16 bits
Compression mode : Lossy
Stream size : 144 MiB (20%)
Alignment : Split accross interleaves
Interleave, duration : 40 ms (1.00 video frame)
Interleave, preload duration : 500 ms
IMDB: http://www.imdb.com/title/tt1213663/
FileSize
The World's End 2013 WEBRiP XViD UNiQUE/sample.avi3.93 Mb
The World's End 2013 WEBRiP XViD UNiQUE/Worlds End.avi734.97 Mb
The World's End 2013 WEBRiP XViD UNiQUE/Torrent Downloaded From P2PDL.com.txt33.00 b
TrackerSeedsLeechsDownloaded
udp://tracker.publicbt.com:80/scrape2110
udp://tracker.openbittorrent.com:80/scrape0010
udp://11.rarbg.me:80/scrape0010
http://coppersurfer.tk:6969/scrape000
http://p2pdl.com:2710/scrape000
http://newhorizons.twentyforty.me:2710/scrape000

Report this torrent

We will carefully monitor this report and react whenever possible.
Thanks for helping us in filtering out bad content and improving TorrentReactor for every other visitor!
Please login or register to be able to report torrents.

Your comment

Please Login or register to be able to add comments.

All comments

No one has added a comment yet. Be the first one.

Related torrents

The World's End 2013 WEBRiP XViD UNiQUE, related to The World's End 2013 WEBRiP XViD UNiQUE