English

Elysium (2013) (CAM) English Subs XViD

Total size: 1.36 Gb Seeds 1 Leechs 6
Screenshots:General
Format                                   : AVI
Format/Info                              : Audio Video Interleave
File size                                : 1.36 GiB
Duration                                 : 1h 41mn
Overall bit rate                         : 1 919 KbpsVideo
ID                                       : 0
Format                                   : MPEG-4 Visual
Format profile                           : Advanced Simple@L5
Format settings, BVOP                    : 2
Format settings, QPel                    : No
Format settings, GMC                     : No warppoints
Format settings, Matrix                  : Default (H.263)
Muxing mode                              : Packed bitstream
Codec ID                                 : XVID
Codec ID/Hint                            : XviD
Duration                                 : 1h 41mn
Bit rate                                 : 1 781 Kbps
Width                                    : 640 pixels
Height                                   : 338 pixels
Display aspect ratio                     : 1.893
Frame rate                               : 25.000 fps
Color space                              : YUV
Chroma subsampling                       : 4:2:0
Bit depth                                : 8 bits
Scan type                                : Progressive
Compression mode                         : Lossy
Bits/(Pixel*Frame)                       : 0.329
Stream size                              : 1.27 GiB (93%)
Writing library                          : XviD 64
Subtitles                                : EnglishAudio
ID                                       : 1
Format                                   : MPEG Audio
Format version                           : Version 1
Format profile                           : Layer 3
Mode                                     : Joint stereo
Mode extension                           : MS Stereo
Codec ID                                 : 55
Codec ID/Hint                            : MP3
Duration                                 : 1h 41mn
Bit rate mode                            : Constant
Bit rate                                 : 128 Kbps
Channel(s)                               : 2 channels
Sampling rate                            : 44.1 KHz
Compression mode                         : Lossy
Stream size                              : 92.9 MiB (7%)
Alignment                                : Aligned on interleaves
Interleave, duration                     : 40 ms (1.00 video frame)
Interleave, preload duration             : 522 ms
Source = Elysium 2013 NEW SOURCE READNFO CAM XViD UNiQUE,thanks
FileSize
Elysium (2013) (CAM) English Subs XViD/Elysium (2013) (CAM) English Subtitles XViD.avi1.36 Gb
Elysium (2013) (CAM) English Subs XViD/elysium_screenshot2.jpg32.65 Kb
Elysium (2013) (CAM) English Subs XViD/elysium_screenshot.jpg29.46 Kb
Elysium (2013) (CAM) English Subs XViD/elysium_screenshot3.jpg23.35 Kb
Elysium (2013) (CAM) English Subs XViD/Torrent Downloaded From ExtraTorrent.com.txt79.00 b
TrackerSeedsLeechsDownloaded
udp://tracker.openbittorrent.com:80/scrape020
udp://tracker.publicbt.com:80/scrape000
udp://tracker.istole.it:80/scrape021
udp://9.rarbg.com:2710/scrape12558
http://exodus.desync.com/scrape000
http://tracker.publicbt.com:80/scrape000

Report this torrent

We will carefully monitor this report and react whenever possible.
Thanks for helping us in filtering out bad content and improving TorrentReactor for every other visitor!
Please login or register to be able to report torrents.

Your comment

Please Login or register to be able to add comments.

All comments

No one has added a comment yet. Be the first one.

Related torrents

Elysium (2013) (CAM) English Subs XViD, related to Elysium (2013) (CAM) English Subs XViD