Download Under The Dome S01E11 - 720p x264 [MKV,AC3,5.1] Ehhhh torrent

Under The Dome S01E11 - 720p x264 [MKV,AC3,5.1] Ehhhh torrent

Total size: 402.75 Mb Seeds 10 Leechs 0
Description
image image
11 Speak Of The Devil
Big Jim turns the townspeople against Barbie when the truth about his past is revealed. Meanwhile, Maxine confronts Barbie's closest ally.
image
General
Format : Matroska
Format version : Version 4 / Version 2
File size : 402 MiB
Duration : 40mn 25s
Overall bit rate : 1 389 Kbps
Encoded date : UTC 2013-09-03 07:58:31
Writing application : mkvmerge v6.2.0 ('Promised Land') built on Apr 28 2013 12:22:01
Writing library : libebml v1.3.0 + libmatroska v1.4.0
Video
ID : 1
Format : AVC
Format/Info : Advanced Video Codec
Format profile : 
/*  */

Format settings, CABAC : Yes
Format settings, ReFrames : 14 frames
Codec ID : V_MPEG4/ISO/AVC
Duration : 40mn 25s
Bit rate : 1 010 Kbps
Width : 1 280 pixels
Height : 720 pixels
Display aspect ratio : 16:9
Frame rate mode : Constant
Frame rate : 23.976 fps
Color space : YUV
Chroma subsampling : 4:2:0
Bit depth : 8 bits
Scan type : Progressive
Bits/(Pixel*Frame) : 0.046
Stream size : 283 MiB (70%)
Writing library : x264 core 136 r2348+704+51 d1baef6 tMod 
Default : Yes
Forced : No
Audio
ID : 2
Format : AC-3
Format/Info : Audio Coding 3
Mode extension : CM (complete main)
Format settings, Endianness : Big
Codec ID : A_AC3
Duration : 40mn 25s
Bit rate mode : Constant
Bit rate : 384 Kbps
Channel(s) : 6 channels
Channel positions : Front: L C R, Side: L R, LFE
Sampling rate : 48.0 KHz
Bit depth : 16 bits
Compression mode : Lossy
Stream size : 111 MiB (28%)
Default : Yes
Forced : No
FileSize
Under The Dome S01E11 - 720p x264 [MKV,AC3,5.1] Ehhhh/Under The Dome S01E11 - Speak Of The Devil - Ehhhh.mkv401.53 Mb
Under The Dome S01E11 - 720p x264 [MKV,AC3,5.1] Ehhhh/Under The Dome S01E11 Media Info.nfo2.67 Kb
Under The Dome S01E11 - 720p x264 [MKV,AC3,5.1] Ehhhh/Under The Dome S01E11 Screenshot.png1.22 Mb
TrackerSeedsLeechsDownloaded
udp://tracker.coppersurfer.tk:6969/scrape401843
udp://tracker.istole.it:80/scrape300
udp://tracker.openbittorrent.com:80/scrape100
udp://tracker.publicbt.com:80/scrape100
udp://tracker.publichd.eu/scrape100
Report this torrent
We will carefully monitor this report and react whenever possible.
Thanks for helping us in filtering out bad content and improving TorrentReactor for every other visitor!
Please login or register to be able to report torrents.

Your comment
Please Login or register to be able to add comments.
All comments

No one has added a comment yet. Be the first one.

Related torrents
Under The Dome S01E11 - 720p x264 [MKV,AC3,5.1] Ehhhh, related to Under The Dome S01E11 - 720p x264 [MKV,AC3,5.1] Ehhhh