Download The Mortal Instruments City of Bones (2013) DVDRip_XViD torrent
Suspicious
Needs verification

The Mortal Instruments City of Bones (2013) DVDRip_XViD torrent

Total size: 1.36 Gb Seeds 0 Leechs 0
The Mortal Instruments City of Bones (2013) DVDRip_XViD
The Mortal Instruments City of Bones (2013) DVDRip_XViD 

http://www.imdb.com/title/tt1538403/

T E C H N i C A L . i N F O . . .      
General
Complete name                            : The Mortal Instruments City of Bones
Format                                   : AVI
Format/Info                              : Audio Video Interleave
File size                                : 1.36 GiB
Duration                                 : 2h 1mn
Overall bit rate                         : 1 629 Kbps
Writing application                      : VirtualDubMod 1.5.10.2 (build 2540/release)
Writing library                          : VirtualDubMod build 2540/release

Video
ID                                       : 0
Format                                   : MPEG-4 Visual
Format profile                           : Advanced Simple@L5
Format settings, BVOP                    : 2
Format settings, QPel                    : No
Format settings, GMC                     : No warppoints
Format settings, Matrix                  : Default (MPEG)
Muxing mode                              : Packed bitstream
Codec ID                                 : XVID
Codec ID/Hint                            : XviD
Duration                                 : 2h 1mn
Bit rate                                 : 1 489 Kbps
Width                                    : 720 pixels
Height                                   : 304 pixels
Display aspect ratio                     : 2.35:1
Original display aspect ratio            : 2.35:1
Frame rate                               : 29.017 fps
Original frame rate                      : 29.023 fps
Color space                              : YUV
Chroma subsampling                       : 4:2:0
Bit depth                                : 8 bits
Scan type                                : Progressive
Compression mode                         : Lossy
Bits/(Pixel*Frame)                       : 0.234
Stream size                              : 1.27 GiB (91%)
Writing library                          : XviD 64

Audio
ID                                       : 1
Format                                   : MPEG Audio
Format version                           : Version 1
Format profile                           : Layer 3
Codec ID                                 : 55
Codec ID/Hint                            : MP3
Duration                                 : 2h 1mn
Bit rate mode                            : Constant
Bit rate                                 : 128 Kbps
Channel(s)                               : 2 channels
Sampling rate                            : 44.1 KHz
Compression mode                         : Lossy
Stream size                              : 111 MiB (8%)
Alignment                                : Split accross interleaves
Interleave, duration                     : 34 ms (1.00 video frame)
Interleave, preload duration             : 500 ms

SCREENS
http://i.imgur.com/UKfz7vR.png 
http://i.imgur.com/17sV5Rx.png 
http://i.imgur.com/xPBAi2A.png 
http://i.imgur.com/IX9NH58.png 
http://i.imgur.com/S3f2jgk.png 
http://i.imgur.com/BGUJ576.png 
http://i.imgur.com/yTXEfrB.png	
FileSize
The Mortal Instruments City of Bones (2013) DVDRip_XViD/The Mortal Instruments City of Bones (2013) DVDRip_XViD.avi1.36 Gb
TrackerSeedsLeechsDownloaded
udp://tracker.publicbt.com:80/scrape000
udp://tracker.openbittorrent.com:80/scrape000
udp://9.rarbg.com:2710/scrape000
http://tracker1.wasabii.com.tw:6969/scrape000
http://tracker.dler.org:6969/scrape000
http://p2pdl.com:2710/scrape000
Report this torrent
We will carefully monitor this report and react whenever possible.
Thanks for helping us in filtering out bad content and improving TorrentReactor for every other visitor!
Please login or register to be able to report torrents.

Your comment
Please Login or register to be able to add comments.
All comments

No one has added a comment yet. Be the first one.

Related torrents
The Mortal Instruments City of Bones (2013) DVDRip_XViD, related to The Mortal Instruments City of Bones (2013) DVDRip_XViD