THE CHRONICLES OF RIDDICK 2004 DIRECTORS CUT DUAL AUDIO HIN ENG DR3AM mkv

THE CHRONICLES OF RIDDICK 2004 DIRECTORS CUT DUAL AUDIO HIN ENG DR3AM mkv

Total size: 740.53 Mb Seeds 0 Leechs 0

GeneralUnique ID : 196755427561989296952730341675052248256 (0x9405B78B19632BD4A9FFDEB854072CC0)
Complete name : H:THE CHRONICLES OF RIDDICK ( 2004 ) DIRECTORS CUT DUAL AUDIO ( HIN + ENG ) - DR3AMTHE CHRONICLES OF RIDDICK ( 2004 ) DIRECTORS CUT DUAL AUDIO ( HIN + ENG ) - DR3AM.mkv
Format : Matroska
Format version : Version 4 / Version 2
File size : 741 MiB
Duration : 2h 14mn
Overall bit rate : 772 Kbps
Movie name : THE CHRONICLES OF RIDDICK ( 2004 ) DIRECTORS CUT DUAL AUDIO ( HIN + ENG ) - DR3AM
Encoded date : UTC 2013-08-25 18:45:59
Writing application : mkvmerge v6.3.0 ('You can't stop me!') built on Jun 27 2013 22:06:07
Writing library : libebml v1.3.0 + libmatroska v1.4.0VideoID : 1
Format : AVC
Format/Info : Advanced Video Codec
Format profile : High@L3.1
Format settings, CABAC : Yes
Format settings, ReFrames : 5 frames
Codec ID : V_MPEG4/ISO/AVC
Duration : 2h 14mn
Bit rate : 586 Kbps
Width : 1 280 pixels
Height : 544 pixels
Display aspect ratio : 2.35:1
Original display aspect ratio : 2.35:1
Frame rate mode : Constant
Frame rate : 23.976 fps
Color space : YUV
Chroma subsampling : 4:2:0
Bit depth : 8 bits
Scan type : Progressive
Bits/(Pixel*Frame) : 0.035
Stream size : 542 MiB (73%)
Title : DR3AM
Writing library : x264 core 80 r1376M 3feaec2
Language : English
Default : Yes
Forced : NoAudio #1ID : 3
Format : AC-3
Format/Info : Audio Coding 3
Mode extension : CM (complete main)
Format settings, Endianness : Big
Codec ID : A_AC3
Duration : 2h 14mn
Bit rate mode : Constant
Bit rate : 96.0 Kbps
Channel(s) : 6 channels
Channel positions : Front: L C R, Side: L R, LFE
Sampling rate : 44.1 KHz
Bit depth : 16 bits
Compression mode : Lossy
Stream size : 92.1 MiB (12%)
Title : DR3AM ( HINDI AUDIO )
Language : Hindi
Default : Yes
Forced : NoAudio #2ID : 4
Format : AC-3
Format/Info : Audio Coding 3
Mode extension : CM (complete main)
Format settings, Endianness : Big
Codec ID : A_AC3
Duration : 2h 14mn
Bit rate mode : Constant
Bit rate : 96.0 Kbps
Channel(s) : 6 channels
Channel positions : Front: L C R, Side: L R, LFE
Sampling rate : 44.1 KHz
Bit depth : 16 bits
Compression mode : Lossy
Stream size : 92.1 MiB (12%)
Title : DR3AM ( ENGLISH AUDIO )
Language : English
Default : No
Forced : NoTextID : 2
Format : UTF-8
Codec ID : S_TEXT/UTF8
Codec ID/Info : UTF-8 Plain Text
Title : THE CHRONICLES OF RIDDICK ( 2004 ) DIRECTORS CUT - DR3AM
Language : English
Default : Yes
Forced : No
FileSize
THE CHRONICLES OF RIDDICK ( 2004 ) DIRECTORS CUT DUAL AUDIO ( HIN + ENG ) - DR3AM.mkv740.53 Mb
TrackerSeedsLeechsDownloaded
udp://tracker.publicbt.com:80/scrape000
udp://9.rarbg.com:2710/scrape001
udp://open.demonii.com:1337/scrape001
http://fr33dom.h33t.com:3310/scrape000
http://94.228.192.98/scrape000
Report this torrent
We will carefully monitor this report and react whenever possible.
Thanks for helping us in filtering out bad content and improving TorrentReactor for every other visitor!
Please login or register to be able to report torrents.

Your comment

Please Login or register to be able to add comments.

All comments

No one has added a comment yet. Be the first one.

Related movies

Search for full movies THE CHRONICLES OF RIDDICK 2004 DIRECTORS CUT DUAL AUDIO HIN ENG DR3AM mkv, related to THE CHRONICLES OF RIDDICK 2004 DIRECTORS CUT DUAL AUDIO HIN ENG DR3AM mkv