www tnttorrent info IRON_MAN_3_2013_miniHD_Lektor PL Leon 345

www tnttorrent info IRON_MAN_3_2013_miniHD_Lektor PL Leon 345

Total size: 2.02 Gb Seeds 2 Leechs 0
Iron Man 3 *2013*
==================================================================
IMDB    http://www.imdb.com/title/tt1300854/?ref_=fn_al_tt_1
Screens:http://img689.imageshack.us/img689/5836/7fev.jpghttp://img689.imageshack.us/img689/5836/7fev.jpghttp://img690.imageshack.us/img690/8264/esw1.jpg
gatunek: Akcja,Sci-Fi
produkcja: Chiny,USA
premiera: 9 maja 2013 (Polska), 18 kwietnia 2013 (świat)
reżyseria: Shane Black
scenariusz: Drew Pearce, Shane Black
Niezastąpiony Robert Downey Jr. powraca w roli miliardera i genialnego wynalazcy Tonyâ™ego Starka w trzeciej czÄ™ści historii ze świata Marvela – "Iron Man 3". Świat Tonyâ™ego Starka legł w gruzach w skutek podstÄ™pnych działań jednego z jego najpotÄ™żniejszych wrogów. W poszukiwaniu zemsty Stark wyrusza w podróż, która wystawi na próbÄ™ siłÄ™ jego charakteru i ducha walki. Przyparty do muru, znów może polegać wyłącznie na swojej pomysłowości i instynkcie. Wkrótce odkrywa odpowiedź na od dawna nurtujące go pytanie: czy to zbroja czyni superbohatera?
General
Complete name : F:FilmyFilmy 3DSzablonWstawkaminiHDIRON_MAN_3_2013_miniHD_Lektor.PL(Leon 345)IRON_MAN_3_2013_miniHD(Leon 345).mp4
Format : MPEG-4
Format profile : Base Media
Codec ID : isom
File size : 2.02 GiB
Duration : 2h 10mn
Overall bit rate mode : Variable
Overall bit rate : 2 217 Kbps
Movie name : IRON_MAN_3_2013_miniHD(Leon 345)
Encoded date : UTC 2013-08-25 05:44:27
Tagged date : UTC 2013-08-25 05:46:57
Video
ID : 1
Format : AVC
Format/Info : Advanced Video Codec
Format profile : High@L4.1
Format settings, CABAC : Yes
Format settings, ReFrames : 2 frames
Codec ID : avc1
Codec ID/Info : Advanced Video Coding
Duration : 2h 10mn
Bit rate : 2 114 Kbps
Maximum bit rate : 21.4 Mbps
Width : 1 920 pixels
Height : 800 pixels
Display aspect ratio : 2.40:1
Frame rate mode : Constant
Frame rate : 23.976 fps
Color space : YUV
Chroma subsampling : 4:2:0
Bit depth : 8 bits
Scan type : Progressive
Bits/(Pixel*Frame) : 0.057
Stream size : 1.93 GiB (95%)
Title : Rip by Leon 345
Writing library : x264 core
Language : English
Encoded date : UTC 2013-08-25 05:44:27
Tagged date : UTC 2013-08-25 05:44:57
Color primaries : BT.709
Transfer characteristics : BT.709
Matrix coefficients : BT.709
Audio
ID : 2
Format : AAC
Format/Info : Advanced Audio Codec
Format profile : LC
Codec ID : 40
Duration : 2h 10mn
Bit rate mode : Variable
Bit rate : 96.0 Kbps
Maximum bit rate : 130 Kbps
Channel(s) : 2 channels
Channel positions : Front: L R
Sampling rate : 48.0 KHz
Compression mode : Lossy
Stream size : 89.3 MiB (4%)
Language : English
Encoded date : UTC 2013-08-25 05:44:52
Tagged date : UTC 2013-08-25 05:44:57
Source :
A/V-Iron Man 3 (2013) Blu-ray EUR 1080p AVC DD5.1-PublicHD
FileSize
[www.tnttorrent.info]IRON_MAN_3_2013_miniHD_Lektor.PL(Leon 345)/IRON_MAN_3_2013_miniHD(Leon 345).mp42.02 Gb
[www.tnttorrent.info]IRON_MAN_3_2013_miniHD_Lektor.PL(Leon 345)/IRON_MAN_3_2013_miniHD(Leon 345).srt107.17 Kb
[www.tnttorrent.info]IRON_MAN_3_2013_miniHD_Lektor.PL(Leon 345)/Open.txt139.00 b
TrackerSeedsLeechsDownloaded
udp://9.rarbg.com:2710/scrape200
http://fr33dom.h33t.com:3310/scrape000
http://exodus.desync.com:6969/scrape000
http://newhorizons.twentyforty.me:2710/scrape000
http://pimp4003-torrents.me:2710/scrape.php000
http://exodus.desync.com/scrape000
Report this torrent
We will carefully monitor this report and react whenever possible.
Thanks for helping us in filtering out bad content and improving TorrentReactor for every other visitor!
Please login or register to be able to report torrents.

Your comment

Please Login or register to be able to add comments.

All comments

No one has added a comment yet. Be the first one.

Related movies

Search for full movies www tnttorrent info IRON_MAN_3_2013_miniHD_Lektor PL Leon 345, related to www tnttorrent info IRON_MAN_3_2013_miniHD_Lektor PL Leon 345