Buongiorno Papa 2013 iTALiAN DVDRip XviD TRL avi

Buongiorno Papa 2013 iTALiAN DVDRip XviD TRL avi

Total size: 1.37 Gb Seeds 71 Leechs 12
INFO:
Code:
General
Complete name                            : F:Buongiorno.Papa.2013
.iTALiAN.DVDRip.XviD-TRL.avi
Format                                   : AVI
Format/Info                              : Audio Video Interleave
File size                                : 1.37 GiB
Duration                                 : 1h 44mn
Overall bit rate                         : 1 864 Kbps
Writing application                      : Nandub v1.0rc2
Writing library                          : Nandub build 1852/release

Video
ID                                       : 0
Format                                   : MPEG-4 Visual
Format profile                           : Advanced Simple@L5
Format settings, BVOP                    : 1
Format settings, QPel                    : No
Format settings, GMC                     : No warppoints
Format settings, Matrix                  : Default (MPEG)
Codec ID                                 : XVID
Codec ID/Hint                            : XviD
Duration                                 : 1h 44mn
Bit rate                                 : 1 406 Kbps
Width                                    : 640 pixels
Height                                   : 352 pixels
Display aspect ratio                     : 16:9
Frame rate                               : 25.000 fps
Color space                              : YUV
Chroma subsampling                       : 4:2:0
Bit depth                                : 8 bits
Scan type                                : Progressive
Compression mode                         : Lossy
Bits/(Pixel*Frame)                       : 0.250
Stream size                              : 1.03 GiB (75%)
Writing library                          : XviD 1.2.1 (UTC 2008-12-04)

Audio
ID                                       : 1
Format                                   : AC-3
Format/Info                              : Audio Coding 3
Mode extension                           : CM (complete main)
Format settings, Endianness              : Big
Codec ID                                 : 2000
Duration                                 : 1h 44mn
Bit rate mode                            : Constant
Bit rate                                 : 448 Kbps
Channel(s)                               : 6 channels
Channel positions                        : Front: L C R, Side: L R, LFE
Sampling rate                            : 48.0 KHz
Bit depth                                : 16 bits
Compression mode                         : Lossy
Stream size                              : 336 MiB (24%)
Alignment                                : Split accross interleaves
Interleave, duration                     : 40 ms (1.00 video frame)
Interleave, preload duration             : 500 ms



SCREENS:BuONA VISiOnE PIRATI!
FileSize
Buongiorno.Papa.2013.iTALiAN.DVDRip.XviD-TRL.avi1.37 Gb
TrackerSeedsLeechsDownloaded
udp://tracker.istole.it:80/scrape2422
udp://9.rarbg.com:2710/scrape256241
udp://tracker.publicbt.com:80/scrape22410
http://exodus.desync.com/scrape000
http://tracker.publicbt.com:80/scrape000
Report this torrent
We will carefully monitor this report and react whenever possible.
Thanks for helping us in filtering out bad content and improving TorrentReactor for every other visitor!
Please login or register to be able to report torrents.

Your comment

Please Login or register to be able to add comments.

All comments

No one has added a comment yet. Be the first one.

Related movies

Search for full movies Buongiorno Papa 2013 iTALiAN DVDRip XviD TRL avi, related to Buongiorno Papa 2013 iTALiAN DVDRip XviD TRL avi