Lorde Royals

Lorde Royals

Total size: 20.75 Mb Seeds 25 Leechs 0
Format : MPEG-4
Format profile : Base Media
Codec ID : isom
File size : 20.8 MiB
Duration : 3mn 20s
Overall bit rate mode : Variable
Overall bit rate : 870 Kbps
Encoded date : UTC 2013-06-28 20:18:59
Tagged date : UTC 2013-06-28 20:18:59
Writing application : Lavf54.63.104

ID : 1
Format : AVC
Format/Info : Advanced Video Codec
Format profile : 
/*  */

Format settings, CABAC : Yes
Format settings, ReFrames : 1 frame
Codec ID : avc1
Codec ID/Info : Advanced Video Coding
Duration : 3mn 20s
Bit rate : 719 Kbps
Width : 852 pixels
Height : 480 pixels
Display aspect ratio : 16:9
Frame rate mode : Constant
Frame rate : 25.000 fps
Color space : YUV
Chroma subsampling : 4:2:0
Bit depth : 8 bits
Scan type : Progressive
Bits/(Pixel*Frame) : 0.070
Stream size : 17.0 MiB (82%)
Writing library : x264 core 129
Encoded date : UTC 2013-06-28 20:18:59
Tagged date : UTC 2013-06-28 20:18:59

ID : 2
Format : AAC
Format/Info : Advanced Audio Codec
Format profile : LC
Codec ID : 40
Duration : 3mn 20s
Duration_FirstFrame : 70ms
Bit rate mode : Variable
Bit rate : 151 Kbps
Maximum bit rate : 176 Kbps
Channel(s) : 2 channels
Channel positions : Front: L R
Sampling rate : 44.1 KHz
Compression mode : Lossy
Stream size : 3.61 MiB (17%)
Encoded date : UTC 2013-06-28 20:18:59
Tagged date : UTC 2013-06-28 20:
FileSize
Lorde - Royals/Lorde - Royals.mp420.75 Mb
Lorde - Royals/Lorde - Royals.srt4.09 Kb
TrackerSeedsLeechsDownloaded
udp://tracker.publicbt.com:80/scrape13010
udp://tracker.openbittorrent.com:80/scrape12010
Report this torrent
We will carefully monitor this report and react whenever possible.
Thanks for helping us in filtering out bad content and improving TorrentReactor for every other visitor!
Please login or register to be able to report torrents.

Your comment

Please Login or register to be able to add comments.

All comments

No one has added a comment yet. Be the first one.

Related music

Search for full music Lorde Royals, related to Lorde Royals