Download Evil Dead 2013 720p Blu Ray x264 Dual Audio English Hindi Mafiaking torrent

Verified torrent

Evil Dead 2013 720p Blu Ray x264 Dual Audio English Hindi Mafiaking torrent

Total size: 883.94 Mb Seeds 97 Leechs 25

CLICK HERE TO CHECK MY ALL OTHER UPLOADS
Evil Dead (2013) 720p Blu-Ray x264   - MafiakingOriginal Hindi Untouched DVD Audio.-=EXTREME SEEDED=-
Quote:
CLICK LOGO FOR
IMDB Rating: 6.5/10.0
GENRE:                Horror
General
Unique ID                                : 223579392077449420003510736548852925717 (0xA833D319F7BA276BB6428144C5DC0515)
Complete name                            : Evil Dead (2013) 720p Blu-Ray x264   - Mafiaking.mkv
Format                                   : Matroska
Format version                           : Version 2
File size                                : 874 MiB
Duration                                 : 1h 31mn
Overall bit rate                         : 1 339 Kbps
Movie name                               : Evil Dead 2013) 720p Blu-Ray x264   - Mafiaking
Encoded date                             : UTC 2013-08-16 09:52:16
Writing application                      : mkvmerge v5.7.0 ('The Whirlwind') built on Jul  8 2012 20:08:51
Writing library                          : libebml v1.2.3 + libmatroska v1.3.0
Video
ID                                       : 1
Format                                   : AVC
Format/Info                              : Advanced Video Codec
Format profile                           : High@L4.1
Format settings, CABAC                   : Yes
Format settings, ReFrames                : 5 frames
Muxing mode                              : Header stripping
Codec ID                                 : V_MPEG4/ISO/AVC
Duration                                 : 1h 31mn
Bit rate                                 : 1 050 Kbps
Width                                    : 1 280 pixels
Height                                   : 536 pixels
Display aspect ratio                     : 2.40:1
Frame rate mode                          : Constant
Frame rate                               : 23.976 fps
Color space                              : YUV
Chroma subsampling                       : 4:2:0
Bit depth                                : 8 bits
Scan type                                : Progressive
Bits/(Pixel*Frame)                       : 0.064
Stream size                              : 669 MiB (77%)
Title                                    : Mafiaking
Writing library                          : x264 core 132 r2 76a5c3a
Language                                 : English
Default                                  : Yes
Forced                                   : N0
Audio #1
ID                                       : 2
Format                                   : AC-3
Format/Info                              : Audio Coding 3
Mode extension                           : CM (complete main)
Format settings, Endianness              : Big
Muxing mode                              : Header stripping
Codec ID                                 : A_AC3
Duration                                 : 1h 31mn
Bit rate mode                            : Constant
Bit rate                                 : 160 Kbps
Channel(s)                               : 2 channels
Channel positions                        : Front: L R
Sampling rate                            : 48.0 KHz
Bit depth                                : 16 bits
Compression mode                         : Lossy
Stream size                              : 104 MiB (12%)
Title                                    : Mafiaking
Language                                 : Hindi
Default                                  : Yes
Forced                                   : No
Audio #2
ID                                       : 3
Format                                   : AC-3
Format/Info                              : Audio Coding 3
Mode extension                           : CM (complete main)
Format settings, Endianness              : Big
Muxing mode                              : Header stripping
Codec ID                                 : A_AC3
Duration                                 : 1h 31mn
Bit rate mode                            : Constant
Bit rate                                 : 128 Kbps
Channel(s)                               : 2 channels
Channel positions                        : Front: L R
Sampling rate                            : 48.0 KHz
Bit depth                                : 16 bits
Compression mode                         : Lossy
Stream size                              : 83.6 MiB (10%)
Title                                    : Mafiaking
Language                                 : English
Default                                  : No
Forced                                   : No


SAMPLE WITH IN TORRENT (IN DUAL AUDIO)Respects To ::- SaM,oziman,Taker And All The Staff's Of Extratorrent And Team EXD!!!
Greetz To ::- K@rtik | Sonic | @King | Abdullah | Imkhan | Sophie | Rohit And All Other Members of Team EXD!!

Evil Dead 2013 720p Blu Ray x264 Dual Audio English Hindi Mafiaking

Evil Dead 2013 720p Blu Ray x264 Dual Audio English Hindi Mafiaking

Evil Dead 2013 720p Blu Ray x264 Dual Audio English Hindi Mafiaking

FileSize
Evil Dead (2013) 720p Blu-Ray x264 [Dual-Audio] [English+Hindi] - Mafiaking/Evil Dead (2013) 720p Blu-Ray x264 [Dual-Audio] [English+Hindi] - Mafiaking.mkv875.25 Mb
Evil Dead (2013) 720p Blu-Ray x264 [Dual-Audio] [English+Hindi] - Mafiaking/SaMple-Evil Dead (2013) 720p Blu-Ray x264 [Dual-Audio] [English+Hindi] - Mafiaking.mkv8.69 Mb
Evil Dead (2013) 720p Blu-Ray x264 [Dual-Audio] [English+Hindi] - Mafiaking/Torrent Downloaded From ExtraTorrent.com.txt353.00 b
TrackerSeedsLeechsDownloaded
udp://tracker.openbittorrent.com:80/scrape13510
udp://9.rarbg.com:2710/scrape13315239
udp://open.demonii.com:1337/scrape164724
udp://ipv4.tracker.harry.lu:80/scrape11310
udp://tracker.istole.it:80/scrape17410
udp://10.rarbg.com/scrape11310
udp://11.rarbg.com:80/scrape14210
http://fr33dom.h33t.com:3310/scrape000
http://94.228.192.98/scrape2193
Report this torrent
We will carefully monitor this report and react whenever possible.
Thanks for helping us in filtering out bad content and improving TorrentReactor for every other visitor!
Please login or register to be able to report torrents.

Your comment

Please Login or register to be able to add comments.

All comments

No one has added a comment yet. Be the first one.

Related torrents

Evil Dead 2013 720p Blu Ray x264 Dual Audio English Hindi Mafiaking, related to Evil Dead 2013 720p Blu Ray x264 Dual Audio English Hindi Mafiaking