Download Despicable Me 2.2013.DVDRip.XviD-MAXSPEED torrent

Fake torrent

Despicable Me 2.2013.DVDRip.XviD-MAXSPEED torrent

Total size: 694.92 Mb Seeds 0 Leechs 0
Despicable Me 2.2013.DVDRip.XviD-MAXSPEED
 Video
 ID                                       : 0
 Format                                   : MPEG-4 Visual
 Format profile                           : Advanced Simple@L5
 Format settings, BVOP                    : 2
 Format settings, QPel                    : No
 Format settings, GMC                     : No warppoints
 Format settings, Matrix                  : Default (H.263)
 Muxing mode                              : Packed bitstream
 Codec ID                                 : XVID
 Codec ID/Hint                            : XviD
 Duration                                 : 2h 1mn
 Bit rate                                 : 1 511 Kbps
 Width                                    : 720 pixels
 Height                                   : 304 pixels
 Display aspect ratio                     : 2.35:1
 Frame rate                               : 24.000 fps
 Color space                              : YUV
 Chroma subsampling                       : 4:2:0
 Bit depth                                : 8 bits
 Scan type                                : Progressive
 Compression mode                         : Lossy
 Bits/(Pixel*Frame)                       : 0.288
 Stream size                              : 1.28 GiB (92%)
 Writing library                          : XviD 64

 Audio
 ID                                       : 1
 Format                                   : MPEG Audio
 Format version                           : Version 1
 Format profile                           : Layer 3
 Mode                                     : Joint stereo
 Codec ID                                 : 55
 Codec ID/Hint                            : MP3
 Duration                                 : 2h 1mn
 Bit rate mode                            : Constant
 Bit rate                                 : 128 Kbps
 Channel(s)                               : 2 channels
 Sampling rate                            : 48.0 KHz
 Compression mode                         : Lossy
 Stream size                              : 111 MiB (8%)
 Alignment                                : Aligned on interleaves
 Interleave, duration                     : 42 ms (1.01 video frame)
 Interleave, preload duration             : 504 ms



FileSize
Despicable Me 2.2013.DVDRip.XviD-MAXSPEED/Despicable Me 2.2013.DVDRip.XviD-MAXSPEED.wmv694.91 Mb
Despicable Me 2.2013.DVDRip.XviD-MAXSPEED/info.nfo5.09 Kb
TrackerSeedsLeechsDownloaded
udp://tracker.openbittorrent.com:80/scrape000
udp://tracker.publicbt.com:80/scrape000
udp://tracker.istole.it:80/scrape000
udp://open.demonii.com:1337/scrape000
http://torrentviz.dnset.com/r/scrape.php000
Report this torrent
We will carefully monitor this report and react whenever possible.
Thanks for helping us in filtering out bad content and improving TorrentReactor for every other visitor!
Please login or register to be able to report torrents.

Your comment
Please Login or register to be able to add comments.
All comments

No one has added a comment yet. Be the first one.

Related torrents
Despicable Me 2.2013.DVDRip.XviD-MAXSPEED, related to Despicable Me 2.2013.DVDRip.XviD-MAXSPEED