English

Verified torrent

Iron Man 3 (2013) DVDRip XviD-MAXSPEED

Total size: 1.37 Gb Seeds 5144 Leechs 904
Iron Man 3 (2013) DVDRip XviD-MAXSPEED
							http://www.torentz.3xforum.ro/post/3189/1/Iron_Man_3_2013_DVDRip_XviD-MAXSPEED/
Screens:
ScreenCaps:Iron Man 3 (2013) DVDRip XviD-MAXSPEED
Format : AVI
Format/Info : Audio Video Interleave
Format profile : OpenDML
Format settings : rec
File size : 1.36 GiB
Duration : 2h 11mn
Overall bit rate : 1 481 Kbps
Writing application : VirtualDubMod 1.5.10.2 (build 2542/release)
Writing library : VirtualDubMod build 2542/release
Original source form : MAX TORRENTZ
Copyright : SIGISMUNT

Video
ID : 0
Format : MPEG-4 Visual
Format profile : Advanced Simple@L5
Format settings, BVOP : 2
Format settings, QPel : No
Format settings, GMC : No warppoints
Format settings, Matrix : Default (MPEG)
Codec ID : XVID
Codec ID/Hint : XviD
Duration : 2h 11mn
Bit rate : 1 094 Kbps
Width : 720 pixels
Height : 304 pixels
Display aspect ratio : 2.35:1
Frame rate : 23.976 fps
Color space : YUV
Chroma subsampling : 4:2:0
Bit depth : 8 bits
Scan type : Progressive
Compression mode : Lossy
Bits/(Pixel*Frame) : 0.208
Stream size : 1.00 GiB (74%)
Writing library : XviD 1.2.1 (UTC 2008-12-04)

Audio
ID : 1
Format : AC-3
Format/Info : Audio Coding 3
Mode extension : CM (complete main)
Format settings, Endianness : Big
Codec ID : 2000
Duration : 2h 11mn
Bit rate mode : Constant
Bit rate : 384 Kbps
Channel(s) : 6 channels
Channel positions : Front: L C R, Side: L R, LFE
Sampling rate : 48.0 KHz
Bit depth : 16 bits
Compression mode : Lossy
Stream size : 359 MiB (26%)
Alignment : Aligned on interleaves
Interleave, duration : 64 ms (1.54 video frames)
Interleave, preload duration : 192 ms

Source: DVD (perfect a/v/sync quality,sample included)
This torrent is not seedbox supported,please seed it to the MAX

Note:If you have something to offer as early releases,seedboxes,
links,accounts,etc please contact us on torentz 3xforum ro

How To Get Your MAXSPEED (uTorrent)

Torrent Client - Preferences - Bandwidth - Number of connections - Set aprox. 500 for each
Torrent Client - Preferences - BiTorrent - Protocol Encryption - Forced
Bandwidth Allocation - High (Set download/upload limit - Unlimited)
Stop Other Active Torrents - Start downloading and wait for connections.
Enjoy and Seed for at least 1:1 ratio. Don't forget to say thanks/leave reviews.
Before downloading you should check/google search sample "release name""sample".
Greets to all actual/future p2p/scene QUALITY groups and affiliate websites.
Don't trust IMDb robot or bad ratings,always watch some trailers first.
Ignore stupid comments/fake/mislabeled/no-DVDrips/CAM/TS/RAR uploads.
Please spread this release/torrent to your friends/forums/etc.
If you need translation subs visit some subtitles sites.
Report if you see online streaming or other spam links.
Recommended movie player VLC PLAYER.
						

Iron Man 3 (2013) DVDRip XviD-MAXSPEED

Iron Man 3 (2013) DVDRip XviD-MAXSPEED

Iron Man 3 (2013) DVDRip XviD-MAXSPEED

Iron Man 3 (2013) DVDRip XviD-MAXSPEED

FileSize
Iron Man 3 (2013) DVDRip XviD-MAXSPEED/Iron Man 3 (2013) DVDRip XviD-MAXSPEED www.torentz.3xforum.ro.avi1.36 Gb
Iron Man 3 (2013) DVDRip XviD-MAXSPEED/sample.avi7.26 Mb
Iron Man 3 (2013) DVDRip XviD-MAXSPEED/screencaps.jpeg470.93 Kb
Iron Man 3 (2013) DVDRip XviD-MAXSPEED/Iron Man 3 (2013) DVDRip XviD-MAXSPEED.nfo3.33 Kb
Iron Man 3 (2013) DVDRip XviD-MAXSPEED/Torrent downloaded from Kat.ph.txt46.00 b
Iron Man 3 (2013) DVDRip XviD-MAXSPEED/Torrent downloaded from Extratorrent.com.txt40.00 b
Iron Man 3 (2013) DVDRip XviD-MAXSPEED/Torrent downloaded from Rarbg.com.txt33.00 b
Iron Man 3 (2013) DVDRip XviD-MAXSPEED/Torrent downloaded from h33t.com.txt32.00 b
TrackerSeedsLeechsDownloaded
udp://tracker.publicbt.com:80/scrape126724310
udp://tracker.openbittorrent.com:80/scrape129324910
udp://open.demonii.com:1337/scrape1288161120171
udp://11.rarbg.com:80/scrape129625110
http://fr33dom.h33t.com:3310/scrape000

Report this torrent

We will carefully monitor this report and react whenever possible.
Thanks for helping us in filtering out bad content and improving TorrentReactor for every other visitor!
Please login or register to be able to report torrents.

Your comment

Please Login or register to be able to add comments.

All comments

No one has added a comment yet. Be the first one.

Related torrents

Iron Man 3 (2013) DVDRip XviD-MAXSPEED, related to Iron Man 3 (2013) DVDRip XviD-MAXSPEED