Download Epic (2013) 1080p AC3 M2TS torrent

Epic (2013) 1080p AC3 M2TS torrent

Total size: 3.99 Gb Seeds 0 Leechs 6
A teenager finds herself transported to a deep forest setting where a battle between the forces of good and the forces of evil is taking place. She bands together with a rag-tag group characters in order to save their world -- and ours.
http://www.imdb.com/title/tt0848537/?ref_=sr_1General
ID                                       : 1 (0x1)
Complete name                            : C:UserspipheadDocumentsTorrents to UploadEpic (2013) 1080p AC3 M2TSEpic (2013) 1080p AC3 M2TS.m2ts
Format                                   : BDAV
Format/Info                              : Blu-ray Video
File size                                : 3.99 GiB
Duration                                 : 1h 42mn
Overall bit rate mode                    : Variable
Overall bit rate                         : 5 578 Kbps
Maximum Overall bit rate                 : 35.5 MbpsVideo
ID                                       : 4113 (0x1011)
Menu ID                                  : 1 (0x1)
Format                                   : AVC
Format/Info                              : Advanced Video Codec
Format profile                           : [email protected]
Format settings, CABAC                   : Yes
Format settings, ReFrames                : 3 frames
Codec ID                                 : 27
Duration                                 : 1h 42mn
Bit rate mode                            : Variable
Bit rate                                 : 4 604 Kbps
Maximum bit rate                         : 24.0 Mbps
Width                                    : 1 920 pixels
Height                                   : 1 080 pixels
Display aspect ratio                     : 16:9
Frame rate                               : 23.976 fps
Color space                              : YUV
Chroma subsampling                       : 4:2:0
Bit depth                                : 8 bits
Scan type                                : Progressive
Bits/(Pixel*Frame)                       : 0.093
Stream size                              : 3.37 GiB (84%)
Writing library                          : x264 core 120 r2120 0c7dab9
Encoding settings                        : cabac=1 / ref=3 / deblock=1:0:0 / analyse=0x3:0x113 / me=umh / subme=7 / psy=1 / psy_rd=1.00:0.25 / mixed_ref=1 / me_range=16 / chroma_me=1 / trellis=1 / 8x8dct=1 / cqm=0 / deadzone=21,11 / fast_pskip=1 / chroma_qp_offset=-4 / threads=6 / sliced_threads=0 / slices=4 / nr=0 / decimate=1 / interlaced=0 / bluray_compat=1 / constrained_intra=0 / bframes=3 / b_pyramid=1 / b_adapt=1 / b_bias=0 / direct=3 / weightb=1 / open_gop=1 / weightp=0 / keyint=24 / keyint_min=2 / scenecut=40 / intra_refresh=0 / rc_lookahead=24 / rc=2pass / mbtree=1 / bitrate=4604 / ratetol=1.0 / qcomp=0.60 / qpmin=0 / qpmax=69 / qpstep=4 / cplxblur=20.0 / qblur=0.5 / vbv_maxrate=24000 / vbv_bufsize=24000 / nal_hrd=vbr / ip_ratio=1.40 / aq=1:1.00Audio
ID                                       : 4352 (0x1100)
Menu ID                                  : 1 (0x1)
Format                                   : AC-3
Format/Info                              : Audio Coding 3
Mode extension                           : CM (complete main)
Format settings, Endianness              : Big
Codec ID                                 : 129
Duration                                 : 1h 42mn
Bit rate mode                            : Constant
Bit rate                                 : 640 Kbps
Channel(s)                               : 6 channels
Channel positions                        : Front: L C R, Side: L R, LFE
Sampling rate                            : 48.0 KHz
Bit depth                                : 16 bits
Compression mode                         : Lossy
Stream size                              : 469 MiB (11%)
Language                                 : English
FileSize
Epic (2013) 1080p AC3 M2TS/Epic (2013) 1080p AC3 M2TS.m2ts3.99 Gb
Epic (2013) 1080p AC3 M2TS/Torrent Downloaded From ExtraTorrent.com.txt353.00 b
TrackerSeedsLeechsDownloaded
udp://tracker.istole.it:80/scrape011
udp://tracker.openbittorrent.com:80/scrape011
udp://9.rarbg.com:2710/scrape01937
udp://11.rarbg.com:80/scrape011
udp://tracker.publicbt.com:80/scrape012
udp://10.rarbg.com/scrape012
Report this torrent
We will carefully monitor this report and react whenever possible.
Thanks for helping us in filtering out bad content and improving TorrentReactor for every other visitor!
Please login or register to be able to report torrents.

Your comment
Please Login or register to be able to add comments.
All comments

No one has added a comment yet. Be the first one.

Related torrents
Epic (2013) 1080p AC3 M2TS, related to Epic (2013) 1080p AC3 M2TS