Download Screw.My.Wife.Please.56.XXX.DVDRip.XviD torrent

Screw.My.Wife.Please.56.XXX.DVDRip.XviD torrent

Total size: 1.36 Gb Seeds 0 Leechs 1
							Screw My Wife Please 56 XXX DVDRip XviDhttp://www.hostpics.info/view.php?filename=974smwc156.jpeghttp://www.hostpics.info/view.php?filename=705smw256.jpeg
Screw My Wife Please # 56: Turn Her Loose DVD video These wives may not be able to cook, but they can fuck the hell out of a porn star.
Video
Format: MPEG-4 Visual
Format profile: Streaming Video@L1
Format settings, BVOP: Yes
Format settings, QPel: No
Format settings, GMC: No warppoints
Format settings, Matrix: Default
Codec ID: XVID
Codec ID/Hint: XviD
Duration: 1h 9mn
Bit rate: 1 258 Kbps
Width: 512 pixels
Height: 288 pixels
Display aspect ratio: 16/9
Frame rate: 29.970 fps
Resolution: 24 bits
Colorimetry: 4:2:0
Scan type: Progressive
Bits/(Pixel*Frame): 0.285
Stream size: 630 MiB (90%)
Writing library: XviD 1.1.2 (UTC 2006-11-01)
Audio
Format: MPEG Audio
Format version: Version 1
Format profile: Layer 3
Codec ID: 55
Codec ID/Hint: MP3
Duration: 1h 9mn
Bit rate mode: Variable
Bit rate: 125 Kbps
Channel(s): 2 channels
Sampling rate: 48.0 KHz
Resolution: 16 bits
Stream size: 62.6 MiB (9%)
Alignment: Aligned on interleaves
Interleave, duration: 24 ms (0.72 video frame)
Interleave, preload duration: 470 ms
Thanks
						
FileSize
Screw.My.Wife.Please.56.XXX.DVDRip.XviD/screw my wife please 56.nfo1.66 Kb
Screw.My.Wife.Please.56.XXX.DVDRip.XviD/Screw.My.Wife.Please.56(CD2).avi697.57 Mb
Screw.My.Wife.Please.56.XXX.DVDRip.XviD/Screw.My.Wife.Please.56(CD1).avi698.21 Mb
TrackerSeedsLeechsDownloaded
udp://tracker.publicbt.com:80/scrape0010
udp://tracker.openbittorrent.com:80/scrape0110
Report this torrent
We will carefully monitor this report and react whenever possible.
Thanks for helping us in filtering out bad content and improving TorrentReactor for every other visitor!
Please login or register to be able to report torrents.

Your comment
Please Login or register to be able to add comments.
All comments

No one has added a comment yet. Be the first one.

Related torrents
Screw.My.Wife.Please.56.XXX.DVDRip.XviD, related to Screw.My.Wife.Please.56.XXX.DVDRip.XviD