English

Rabba Main Kya Karoon 2013 Hindi Movies DVDScr XviD New Source Sample Included ~ ☻rDX☻

Total size: 704.11 Mb Seeds 21 Leechs 0
Rabba Main Kya Karoon 2013 Hindi Movies DVDScr XviD New Source Sample Included ~ ☻rDX☻
Screen Shots :http://myimghosting.serveftp.com/13/RabbaMainKyaKaroon.htmlhttp://myimghost.cwahi.net/RabbaMainKyaKaroon.html
http://myimghosting.serveftp.com/13/RabbaMainKyaKaroon.htmlhttp://myimghost.cwahi.net/RabbaMainKyaKaroon.html
Format : AVI
Format/Info : Audio Video Interleave
File size : 687 MiB
Duration : 1h 50mn
Overall bit rate : 871 Kbps
Writing library : MPlayer
Video
ID : 0
Format : MPEG-4 Visual
Format profile : Advanced Simple@L5
Format settings, BVOP : 1
Format settings, QPel : No
Format settings, GMC : No warppoints
Format settings, Matrix : Default (H.263)
Muxing mode : Packed bitstream
Codec ID : XVID
Codec ID/Hint : XviD
Duration : 1h 50mn
Bit rate : 786 Kbps
Width : 640 pixels
Height : 272 pixels
Display aspect ratio : 2.35:1
Frame rate : 23.976 fps
Color space : YUV
Chroma subsampling : 4:2:0
Bit depth : 8 bits
Scan type : Progressive
Compression mode : Lossy
Bits/(Pixel*Frame) : 0.188
Stream size : 620 MiB (90%)
Writing library : XviD 1.2.1 (UTC 2008-12-04)
Audio
ID : 1
Format : MPEG Audio
Format version : Version 1
Format profile : Layer 3
Mode : Joint stereo
Mode extension : MS Stereo
Codec ID : 55
Codec ID/Hint : MP3
Duration : 1h 50mn
Bit rate mode : Constant
Bit rate : 80.0 Kbps
Channel(s) : 2 channels
Sampling rate : 32.0 KHz
Compression mode : Lossy
Stream size : 63.1 MiB (9%)
Alignment : Split accross interleaves
Interleave, duration : 500 ms (11.99 video frames)
Interleave, preload duration : 500 ms
Writing library : LAME3.99r
Encoding settings : -m j -V 4 -q 2 -lowpass 13.5

Files not found

TrackerSeedsLeechsDownloaded
udp://tracker.publicbt.com:80/scrape4010
udp://tracker.openbittorrent.com:80/scrape4010
udp://tracker.istole.it:80/scrape5010
udp://coppersurfer.tk:6969/scrape4038
udp://9.rarbg.com:2710/scrape4094
http://exodus.desync.com/scrape000

Report this torrent

We will carefully monitor this report and react whenever possible.
Thanks for helping us in filtering out bad content and improving TorrentReactor for every other visitor!
Please login or register to be able to report torrents.

Your comment

Please Login or register to be able to add comments.

All comments

No one has added a comment yet. Be the first one.

Related torrents

Rabba Main Kya Karoon 2013 Hindi Movies DVDScr XviD New Source Sample Included ~ ☻rDX☻, related to Rabba Main Kya Karoon 2013 Hindi Movies DVDScr XviD New Source Sample Included ~ ☻rDX☻