English

The Conjuring 2013 READNFO VODRiP XViD UNiQUE

Total size: 1.40 Gb Seeds 6 Leechs 0
The Conjuring 2013 READNFO VODRiP XViD UNiQUE
							
IMDB: a rel="nofollow" href="http://www.imdb.com/title/tt1457767/
Format : AVI
Format/Info : Audio Video Interleave
File size : 1.39 GiB
Duration : 1h 47mn
Overall bit rate : 1 852 Kbps
Writing application : VirtualDubMod 1.5.10.2 (build 2540/release)
Writing library : VirtualDubMod build 2540/release
Video
ID : 0
Format : MPEG-4 Visual
Format profile : Advanced Simple@L5
Format settings, BVOP : 2
Format settings, QPel : No
Format settings, GMC : No warppoints
Format settings, Matrix : Default (H.263)
Muxing mode : Packed bitstream
Codec ID : XVID
Codec ID/Hint : XviD
Duration : 1h 47mn
Bit rate : 1 714 Kbps
Width : 720 pixels
Height : 288 pixels
Display aspect ratio : 2.500
Frame rate : 25.000 fps
Color space : YUV
Chroma subsampling : 4:2:0
Bit depth : 8 bits
Scan type : Progressive
Compression mode : Lossy
Bits/(Pixel*Frame) : 0.331
Stream size : 1.29 GiB (93%)
Writing library : XviD 64
Audio
ID : 1
Format : MPEG Audio
Format version : Version 1
Format profile : Layer 3
Mode : Joint stereo
Mode extension : MS Stereo
Codec ID : 55
Codec ID/Hint : MP3
Duration : 1h 47mn
Bit rate mode : Constant
Bit rate : 128 Kbps
Channel(s) : 2 channels
Sampling rate : 44.1 KHz
Compression mode : Lossy
Stream size : 98.3 MiB (7%)
Alignment : Split accross interleaves
Interleave, duration : 40 ms (1.00 video frame)
Interleave, preload duration : 500 ms
Screens:
Storyline:
In 1971, Carolyn and Roger Parren move their family into a dilapidated Rhode Island farm house and soon strange things start happening around it with escalating nightmarish terror. In desperation, Carolyn contacts the noted paranormal investigators, Ed and Lorraine Warren, to examine the house. What the Warrens discover is a whole area steeped in a satanic haunting that is now targeting the Parren family wherever they go. To stop this evil, the Warrens will have to call upon all their skills and spiritual strength to defeat this spectral menace at its source that threatens to destroy everyone involved. 
						
FileSize
The Conjuring 2013 READNFO VODRiP XViD UNiQUE/sample.avi8.25 Mb
The Conjuring 2013 READNFO VODRiP XViD UNiQUE/Conjuring.avi1.39 Gb
TrackerSeedsLeechsDownloaded
udp://tracker.publicbt.com:80/scrape0010
udp://tracker.openbittorrent.com:80/scrape0010
http://94.228.192.98.nyud.net/scrape60211
http://tracker.torrentbay.to:6969/scrape000
http://exodus.desync.com:6969/scrape000

Report this torrent

We will carefully monitor this report and react whenever possible.
Thanks for helping us in filtering out bad content and improving TorrentReactor for every other visitor!
Please login or register to be able to report torrents.

Your comment

Please Login or register to be able to add comments.

All comments

No one has added a comment yet. Be the first one.

Related torrents

The Conjuring 2013 READNFO VODRiP XViD UNiQUE, related to The Conjuring 2013 READNFO VODRiP XViD UNiQUE