Download The Conjuring 2013 R6 WEBRiP XviD-Acesan8s torrent

Verified torrent

The Conjuring 2013 R6 WEBRiP XviD-Acesan8s torrent

Total size: 705.05 Mb Seeds 3989 Leechs 52
The Conjuring 2013 R6 WEBRiP XviD-Acesan8s
							The.Conjuring.2013.R6.WEBRiP.XviD Acesan8s
Format : AVI
Format/Info : Audio Video Interleave
File size : 705 MiB
Duration : 1h 47mn
Overall bit rate : 919 Kbps
Writing application : VirtualDubMod 1.5.10.2 (build 2540/release)
Writing library : VirtualDubMod build 2540/release
Video
ID : 0
Format : MPEG-4 Visual
Format profile : Advanced Simple@L5
Format settings, BVOP : 2
Format settings, QPel : No
Format settings, GMC : No warppoints
Format settings, Matrix : Default (H.263)
Muxing mode : Packed bitstream
Codec ID : XVID
Codec ID/Hint : XviD
Duration : 1h 47mn
Bit rate : 781 Kbps
Width : 640 pixels
Height : 288 pixels
Display aspect ratio : 2.222
Frame rate : 23.976 fps
Color space : YUV
Chroma subsampling : 4:2:0
Bit depth : 8 bits
Scan type : Progressive
Compression mode : Lossy
Bits/(Pixel*Frame) : 0.177
Stream size : 600 MiB (85%)
Writing library : XviD 64
Audio
ID : 1
Format : MPEG Audio
Format version : Version 1
Format profile : Layer 3
Mode : Joint stereo
Mode extension : MS Stereo
Codec ID : 55
Codec ID/Hint : MP3
Duration : 1h 47mn
Bit rate mode : Constant
Bit rate : 128 Kbps
Channel(s) : 2 channels
Sampling rate : 44.1 KHz
Compression mode : Lossy
Stream size : 98.2 MiB (14%)
Alignment : Split accross interleaves
Interleave, duration : 42 ms (1.00 video frame)
Interleave, preload duration : 500 ms
Screens:
Trailerhttps://www.youtube.com/watch?v=k10ETZ41q5o 
						

The Conjuring 2013 R6 WEBRiP XviD-Acesan8s

The Conjuring 2013 R6 WEBRiP XviD-Acesan8s

The Conjuring 2013 R6 WEBRiP XviD-Acesan8s

The Conjuring 2013 R6 WEBRiP XviD-Acesan8s

FileSize
The Conjuring 2013 R6 WEBRiP XviD-Acesan8s/The Conjuring 2013 R6 Webrip XviD Acesan8s.avi705.05 Mb
The Conjuring 2013 R6 WEBRiP XviD-Acesan8s/Torrent Downloaded From ExtraTorrent.com.txt339.00 b
TrackerSeedsLeechsDownloaded
udp://tracker.publicbt.com:80/scrape536710
udp://tracker.openbittorrent.com:80/scrape474210
udp://tracker.istole.it:80/scrape7261210
udp://9.rarbg.com:2710/scrape246267144
udp://12.rarbg.me:80/scrape7261210
udp://10.rarbg.me:80/scrape536710
udp://11.rarbg.me:80/scrape473710
udp://9.rarbg.me:2710/scrape246267144
http://tracker.trackerfix.com/scrape26167800
Report this torrent
We will carefully monitor this report and react whenever possible.
Thanks for helping us in filtering out bad content and improving TorrentReactor for every other visitor!
Please login or register to be able to report torrents.

Your comment
Please Login or register to be able to add comments.
All comments

No one has added a comment yet. Be the first one.

Related torrents
The Conjuring 2013 R6 WEBRiP XviD-Acesan8s, related to The Conjuring 2013 R6 WEBRiP XviD-Acesan8s