Hansel & Gretel (2002).avi torrent

Total size: 701.44 Mb Seeds 11 Leechs 0
							Hansel & Gretel (2002)  MIRCrew Hansel & Gretel (2002)
Titolo Originale: HANSEL & GRETEL
Regia: Gary J. Tunnicliffe
Interpreti: Jacob Smith, Dakota Fanning, Delta Burke, Taylor Momsen, Howie Mandel, Lynn Redgrave
Durata: h 1.29
Nazionalità: USA 2002
Genere: fantasy
Al cinema nel Settembre 2002
Quando la loro perfida matrigna li imprigiona nel bosco magico, per Hansel e Gretel le cose sembrano mettersi davvero male. Ma quando s'imbattono nell'Omino del Sonno, si ritrovano 
proiettati in un'avventura da favola che va al di là dei loro sogni più fantastici. Nella loro viaggio incantato incontreranno l'Uomo Nero, il Troll, la Fata del Bosco e la Strega Cattiva. 
General
Complete name :Hansel & Gretel (2002).avi
Format : AVI
Format/Info : Audio Video Interleave
File size : 701 MiB
Duration : 1h 24mn
Overall bit rate : 1 155 Kbps
Writing application : Nandub v1.0rc2
Writing library : Nandub build 1852/release
Video
ID : 0
Format : MPEG-4 Visual
Format profile : Advanced Simple@L5
Format settings, BVOP : Yes
Format settings, QPel : No
Format settings, GMC : No warppoints
Format settings, Matrix : Default (H.263)
Codec ID : XVID
Codec ID/Hint : XviD
Duration : 1h 24mn
Bit rate : 1 012 Kbps
Width : 640 pixels
Height : 272 pixels
Display aspect ratio : 2.35:1
Frame rate : 25.000 fps
Color space : YUV
Chroma subsampling : 4:2:0
Bit depth : 8 bits
Scan type : Progressive
Bits/(Pixel*Frame) : 0.233
Stream size : 615 MiB (88%)
Writing library : XviD 1.0.3 (UTC 2004-12-20)
Audio
ID : 1
Format : MPEG Audio
Format version : Version 1
Format profile : Layer 3
Mode : Joint stereo
Mode extension : MS Stereo
Codec ID : 55
Codec ID/Hint : MP3
Duration : 1h 24mn
Bit rate mode : Variable
Bit rate : 128 Kbps
Channel(s) : 2 channels
Sampling rate : 48.0 KHz
Stream size : 79.0 MiB (11%)
Alignment : Aligned on interleaves
Interleave, duration : 24 ms (0.60 video frame)
Interleave, preload duration : 118 ms
						
FileSize
Hansel & Gretel (2002).avi701.44 Mb
TrackerSeedsLeechsDownloaded
udp://tracker.publicbt.com:80/scrape2010
udp://tracker.openbittorrent.com:80/scrape2010
udp://tracker.istole.it:80/scrape3010
udp://tracker.tntvillage.scambioetico.org:2710/scrape401421
http://9.rarbg.com:2710/scrape000
Report this torrent
We will carefully monitor this report and react whenever possible.
Thanks for helping us in filtering out bad content and improving TorrentReactor for every other visitor!
Please login or register to be able to report torrents.

Your comment
Please Login or register to be able to add comments.
All comments

No one has added a comment yet. Be the first one.

Related torrents
Hansel & Gretel (2002).avi, related to Hansel & Gretel (2002).avi