Download R.I.P.D.2013.BDRip.X264-SPARKS torrent

R.I.P.D.2013.BDRip.X264-SPARKS torrent

Total size: 710.63 Mb Seeds 0 Leechs 0
R.I.P.D.2013.BDRip.X264-SPARKS
Duration                       : 2h 2mn
Overall bit rate               : 705 Kbps
Writing application            : Lavf54.63.104

Video
Format                         : AVC
Format/Info                    : Advanced Video Codec
Format profile                 : [email protected]
Format settings, CABAC         : Yes
Format settings, ReFrames      : 1 frame
Codec ID                       : H264
Duration                       : 2h 2mn
Bit rate                       : 437 Kbps
Width                          : 624 pixels
Height                         : 480 pixels
Display aspect ratio           : 4:3
Frame rate mode                : Variable
Frame rate                     : 25.000 fps
Color space                    : YUV
Chroma subsampling             : 4:2:0
Bit depth                      : 8 bits
Scan type                      : Progressive
Bits/(Pixel*Frame)             : 0.058
Stream size                    : 382 MiB (62%)
Writing library                : x264 core 129

Audio
Format                         : MPEG Audio
Format version                 : Version 1
Format profile                 : Layer 3
Mode                           : Joint stereo
Codec ID                       : 55
Codec ID/Hint                  : MP3
Duration                       : 2h 2mn
Bit rate mode                  : Constant
Bit rate                       : 256 Kbps
Channel(s)                     : 2 channels
Sampling rate                  : 44.1 KHz
Compression mode               : Lossy
Stream size                    : 224 MiB (36%)
Alignment                      : Aligned on interleaves
Interleave, duration           : 26 ms (0.65 video frame)
FileSize
R.I.P.D.2013.BDRip.X264-SPARKS/R.I.P.D.2013.BDRip.X264-SPARKS.wmv710.48 Mb
R.I.P.D.2013.BDRip.X264-SPARKS/subtitles/NL/subtitles.srt69.51 Kb
R.I.P.D.2013.BDRip.X264-SPARKS/subtitles/English/subtitles.srt46.43 Kb
R.I.P.D.2013.BDRip.X264-SPARKS/subtitles/Polish/subtitles.srt31.13 Kb
R.I.P.D.2013.BDRip.X264-SPARKS/Info.nfo5.97 Kb
TrackerSeedsLeechsDownloaded
udp://tracker.openbittorrent.com:80/scrape000
udp://tracker.publicbt.com:80/scrape000
udp://tracker.istole.it:80/scrape000
udp://open.demonii.com:1337/scrape000
http://tracker.dnsrd.com/app/scrape.php000
Report this torrent
We will carefully monitor this report and react whenever possible.
Thanks for helping us in filtering out bad content and improving TorrentReactor for every other visitor!
Please login or register to be able to report torrents.

Your comment
Please Login or register to be able to add comments.
All comments

No one has added a comment yet. Be the first one.

Related torrents
R.I.P.D.2013.BDRip.X264-SPARKS, related to R.I.P.D.2013.BDRip.X264-SPARKS