Download The Thieves [2012] BRRip XviD - CODY torrent

The Thieves [2012] BRRip XviD - CODY torrent

Total size: 1.00 Gb Seeds 16 Leechs 0
The Thieves [2012] BRRip XviD - CODY
General
Complete name                            : The Thieves  BRRip XviD - CODY.avi
Format                                   : AVI
Format/Info                              : Audio Video Interleave
File size                                : 1.00 GiB
Duration                                 : 2h 15mn
Overall bit rate                         : 1 058 Kbps
Writing application                      : VirtualDubMod 1.5.10.3 | www.virtualdub-fr.org || (build 2550/release)
Writing library                          : VirtualDubMod build 2550/release

Video
ID                                       : 0
Format                                   : MPEG-4 Visual
Format profile                           : Advanced Simple@L5
Format settings, BVOP                    : 4
Format settings, QPel                    : No
Format settings, GMC                     : No warppoints
Format settings, Matrix                  : Default (H.263)
Muxing mode                              : Packed bitstream
Codec ID                                 : XVID
Codec ID/Hint                            : XviD
Duration                                 : 2h 15mn
Bit rate                                 : 920 Kbps
Width                                    : 720 pixels
Height                                   : 304 pixels
Display aspect ratio                     : 2.35:1
Frame rate                               : 24.000 fps
Color space                              : YUV
Chroma subsampling                       : 4:2:0
Bit depth                                : 8 bits
Scan type                                : Progressive
Compression mode                         : Lossy
Bits/(Pixel*Frame)                       : 0.175
Stream size                              : 895 MiB (87%)
Writing library                          : XviD 65

Audio
ID                                       : 1
Format                                   : MPEG Audio
Format version                           : Version 1
Format profile                           : Layer 3
Codec ID                                 : 55
Codec ID/Hint                            : MP3
Duration                                 : 2h 15mn
Bit rate mode                            : Constant
Bit rate                                 : 128 Kbps
Channel(s)                               : 2 channels
Sampling rate                            : 48.0 KHz
Compression mode                         : Lossy
Stream size                              : 124 MiB (12%)
Alignment                                : Aligned on interleaves
Interleave, duration                     : 42 ms (1.00 video frame)
Interleave, preload duration             : 504 ms
Writing library                          : LAME3.99r
Encoding settings                        : -m s -V 4 -q 2 -lowpass 17 -b 128

Audio language                           : Korean

IMDB link:                                 http://www.imdb.com/title/tt2330866/

Subtitles included                       : English, Romanian


Please seed at least 1,5:1 . This way this torrent has a chance to survive !


Thanks . Enjoy !! 				
		
FileSize
The Thieves [2012] BRRip XviD - CODY/Cover.jpg397.61 Kb
The Thieves [2012] BRRip XviD - CODY/Info_by_Cody.txt5.57 Kb
The Thieves [2012] BRRip XviD - CODY/The Thieves [2012] BRRip XviD - CODY.avi1.00 Gb
The Thieves [2012] BRRip XviD - CODY/The Thieves [2012] BRRip XviD - CODY.English.srt95.50 Kb
The Thieves [2012] BRRip XviD - CODY/The Thieves [2012] BRRip XviD - CODY.srt95.27 Kb
The Thieves [2012] BRRip XviD - CODY/Tracked by h33t.com.txt40.00 b
TrackerSeedsLeechsDownloaded
udp://tracker.openbittorrent.com:80/scrape4010
udp://tracker.publicbt.com:80/scrape4010
udp://tracker.token.ro:80/scrape4010
udp://bt.rghost.net:80/scrape4010
http://fr33dom.h33t.com:3310/scrape000
http://tracker.thepiratebay.org/scrape000
http://exodus.desync.com:6969/scrape000
http://cpleft.com:2710/scrape000
Report this torrent
We will carefully monitor this report and react whenever possible.
Thanks for helping us in filtering out bad content and improving TorrentReactor for every other visitor!
Please login or register to be able to report torrents.

Your comment
Please Login or register to be able to add comments.
All comments

No one has added a comment yet. Be the first one.

Related torrents
The Thieves [2012] BRRip XviD - CODY, related to The Thieves [2012] BRRip XviD - CODY