Download Welcome to Sajjanpur (2008)720p.X264.DVDRip.Ac3.5.1.By K@rtik [ExD Exclusive] torrent

Welcome to Sajjanpur (2008)720p.X264.DVDRip.Ac3.5.1.By K@rtik [ExD Exclusive] torrent

Total size: 2.01 Gb Seeds 5 Leechs 0
Welcome to Sajjanpur (2008)720p.X264.DVDRip.Ac3.5.1 
http://img690.imageshack.us/img690/5062/coverucc.jpg


Screens:
 
http://img822.imageshack.us/img822/1944/50687286.png
 
http://img191.imageshack.us/img191/4227/17692625.png
 
http://img850.imageshack.us/img850/4922/97565038.png
 
http://img829.imageshack.us/img829/6279/88607421.png
 
http://img7.imageshack.us/img7/9325/68586708.png



Rip Information
Code:
Format : Matroska Format version : Version 2 File size : 2.00 GiB Duration : 2h 10mn Overall bit rate : 2 182 Kbps Movie name : Welcome to Sajjanpur (2008)720p.X264.DVDRip.Ac3.5.1.By K@rtik  Encoded date : UTC 2012-08-13 18:30:37

Video
Code:
Format : AVC Format/Info : Advanced Video Codec Format profile : [email protected] Format settings, CABAC : Yes Format settings, ReFrames : 4 frames Muxing mode : Header stripping Codec ID : V_MPEG4/ISO/AVC Duration : 2h 10mn Bit rate : 1 733 Kbps Width : 1 280 pixels Height : 544 pixels Display aspect ratio : 2.35:1 Frame rate : 29.970 fps Color space : YUV Chroma subsampling : 4:2:0 Bit depth : 8 bits Scan type : Progressive Bits/(Pixel*Frame) : 0.083 Stream size : 1.55 GiB (77%) Title : K@rtik Writing library : x264 core 125 r2200 999b753

Audio 1
Code:
Format : AC-3 Format/Info : Audio Coding 3 Mode extension : CM (complete main) Format settings, Endianness : Big Muxing mode : Header stripping Codec ID : A_AC3 Duration : 2h 10mn Bit rate mode : Constant Bit rate : 448 Kbps Channel(s) : 6 channels Channel positions : Front: L C R, Side: L R, LFE Sampling rate : 48.0 KHz Bit depth : 16 bits Compression mode : Lossy Stream size : 420 MiB (21%) Title : K@rtik Language : Hindi
		
FileSize
Welcome to Sajjanpur (2008)720p.X264.DVDRip.Ac3.5.1.By K@rtik [ExD Exclusive]/Welcome to Sajjanpur (2008)720p.X264.DVDRip.Ac3.5.1.By K@rtik [ExD Exclusive].mkv2.00 Gb
Welcome to Sajjanpur (2008)720p.X264.DVDRip.Ac3.5.1.By K@rtik [ExD Exclusive]/Sample/Welcome to Sajjanpur (2008)Sample.mkv12.13 Mb
Welcome to Sajjanpur (2008)720p.X264.DVDRip.Ac3.5.1.By K@rtik [ExD Exclusive]/Cover.jpg2.13 Mb
Welcome to Sajjanpur (2008)720p.X264.DVDRip.Ac3.5.1.By K@rtik [ExD Exclusive]/Welcome to Sajjanpur (2008)720p.X264.DVDRip.Ac3.5.1.By K@rtik [ExD Exclusive].srt145.71 Kb
TrackerSeedsLeechsDownloaded
udp://tracker.openbittorrent.com:80/scrape1010
udp://tracker.publicbt.com:80/scrape2010
udp://tracker.istole.it:80/scrape205
http://tracker.thepiratebay.org/scrape000
http://bigtorrent.org:2710/scrape000
http://fr33dom.h33t.com:3310/scrape000
http://tracker.ex.ua/scrape005
http://i.bandito.org/scrape000
http://tracker.tfile.me/scrape000
http://sline.net:2710/scrape000
http://tracker.torrentfrancais.com/scrape000
http://tracker.coppersurfer.tk:6969/scrape000
http://exodus.desync.com:6969/scrape000
Report this torrent
We will carefully monitor this report and react whenever possible.
Thanks for helping us in filtering out bad content and improving TorrentReactor for every other visitor!
Please login or register to be able to report torrents.

Your comment
Please Login or register to be able to add comments.
All comments

No one has added a comment yet. Be the first one.

Related torrents
Welcome to Sajjanpur (2008)720p.X264.DVDRip.Ac3.5.1.By K@rtik [ExD Exclusive], related to Welcome to Sajjanpur (2008)720p.X264.DVDRip.Ac3.5.1.By K@rtik [ExD Exclusive]